  0
SECTION
  2
HEADER
  9
$ACADVER
  1
AC1015
  9
$ACADMAINTVER
 70
     6
  9
$DWGCODEPAGE
  3
ANSI_1252
  9
$INSBASE
 10
0.0
 20
0.0
 30
0.0
  9
$EXTMIN
 10
0.0
 20
0.0
 30
0.0
  9
$EXTMAX
 10
297.0000000000002
 20
210.0000000000002
 30
0.0
  9
$LIMMIN
 10
0.0
 20
0.0
  9
$LIMMAX
 10
12.0
 20
9.0
  9
$ORTHOMODE
 70
     0
  9
$REGENMODE
 70
     1
  9
$FILLMODE
 70
     1
  9
$QTEXTMODE
 70
     0
  9
$MIRRTEXT
 70
     1
  9
$LTSCALE
 40
1.0
  9
$ATTMODE
 70
     1
  9
$TEXTSIZE
 40
0.2
  9
$TRACEWID
 40
0.05
  9
$TEXTSTYLE
  7
Standard
  9
$CLAYER
  8
0
  9
$CELTYPE
  6
ByLayer
  9
$CECOLOR
 62
   256
  9
$CELTSCALE
 40
1.0
  9
$DISPSILH
 70
     0
  9
$DIMSCALE
 40
1.0
  9
$DIMASZ
 40
0.18
  9
$DIMEXO
 40
0.0625
  9
$DIMDLI
 40
0.38
  9
$DIMRND
 40
0.0
  9
$DIMDLE
 40
0.0
  9
$DIMEXE
 40
0.18
  9
$DIMTP
 40
0.0
  9
$DIMTM
 40
0.0
  9
$DIMTXT
 40
0.18
  9
$DIMCEN
 40
0.09
  9
$DIMTSZ
 40
0.0
  9
$DIMTOL
 70
     0
  9
$DIMLIM
 70
     0
  9
$DIMTIH
 70
     1
  9
$DIMTOH
 70
     1
  9
$DIMSE1
 70
     0
  9
$DIMSE2
 70
     0
  9
$DIMTAD
 70
     0
  9
$DIMZIN
 70
     0
  9
$DIMBLK
  1

  9
$DIMASO
 70
     1
  9
$DIMSHO
 70
     1
  9
$DIMPOST
  1

  9
$DIMAPOST
  1

  9
$DIMALT
 70
     0
  9
$DIMALTD
 70
     2
  9
$DIMALTF
 40
25.4
  9
$DIMLFAC
 40
1.0
  9
$DIMTOFL
 70
     0
  9
$DIMTVP
 40
0.0
  9
$DIMTIX
 70
     0
  9
$DIMSOXD
 70
     0
  9
$DIMSAH
 70
     0
  9
$DIMBLK1
  1

  9
$DIMBLK2
  1

  9
$DIMSTYLE
  2
Standard
  9
$DIMCLRD
 70
     0
  9
$DIMCLRE
 70
     0
  9
$DIMCLRT
 70
     0
  9
$DIMTFAC
 40
1.0
  9
$DIMGAP
 40
0.09
  9
$DIMJUST
 70
     0
  9
$DIMSD1
 70
     0
  9
$DIMSD2
 70
     0
  9
$DIMTOLJ
 70
     1
  9
$DIMTZIN
 70
     0
  9
$DIMALTZ
 70
     0
  9
$DIMALTTZ
 70
     0
  9
$DIMUPT
 70
     0
  9
$DIMDEC
 70
     4
  9
$DIMTDEC
 70
     4
  9
$DIMALTU
 70
     2
  9
$DIMALTTD
 70
     2
  9
$DIMTXSTY
  7
Standard
  9
$DIMAUNIT
 70
     0
  9
$DIMADEC
 70
     0
  9
$DIMALTRND
 40
0.0
  9
$DIMAZIN
 70
     0
  9
$DIMDSEP
 70
    46
  9
$DIMATFIT
 70
     3
  9
$DIMFRAC
 70
     0
  9
$DIMLDRBLK
  1

  9
$DIMLUNIT
 70
     2
  9
$DIMLWD
 70
    -2
  9
$DIMLWE
 70
    -2
  9
$DIMTMOVE
 70
     0
  9
$LUNITS
 70
     2
  9
$LUPREC
 70
     4
  9
$SKETCHINC
 40
0.1
  9
$FILLETRAD
 40
0.5
  9
$AUNITS
 70
     0
  9
$AUPREC
 70
     0
  9
$MENU
  1
.
  9
$ELEVATION
 40
0.0
  9
$PELEVATION
 40
0.0
  9
$THICKNESS
 40
0.0
  9
$LIMCHECK
 70
     0
  9
$CHAMFERA
 40
0.5
  9
$CHAMFERB
 40
0.5
  9
$CHAMFERC
 40
1.0
  9
$CHAMFERD
 40
0.0
  9
$SKPOLY
 70
     0
  9
$TDCREATE
 40
2456997.606609467
  9
$TDUCREATE
 40
2456997.564942801
  9
$TDUPDATE
 40
2456997.606609653
  9
$TDUUPDATE
 40
2456997.564942986
  9
$TDINDWG
 40
0.0000000116
  9
$TDUSRTIMER
 40
0.0000000116
  9
$USRTIMER
 70
     1
  9
$ANGBASE
 50
0.0
  9
$ANGDIR
 70
     0
  9
$PDMODE
 70
     0
  9
$PDSIZE
 40
0.0
  9
$PLINEWID
 40
0.0
  9
$SPLFRAME
 70
     0
  9
$SPLINETYPE
 70
     6
  9
$SPLINESEGS
 70
     8
  9
$HANDSEED
  5
3E3
  9
$SURFTAB1
 70
     6
  9
$SURFTAB2
 70
     6
  9
$SURFTYPE
 70
     6
  9
$SURFU
 70
     6
  9
$SURFV
 70
     6
  9
$UCSBASE
  2

  9
$UCSNAME
  2

  9
$UCSORG
 10
0.0
 20
0.0
 30
0.0
  9
$UCSXDIR
 10
1.0
 20
0.0
 30
0.0
  9
$UCSYDIR
 10
0.0
 20
1.0
 30
0.0
  9
$UCSORTHOREF
  2

  9
$UCSORTHOVIEW
 70
     0
  9
$UCSORGTOP
 10
0.0
 20
0.0
 30
0.0
  9
$UCSORGBOTTOM
 10
0.0
 20
0.0
 30
0.0
  9
$UCSORGLEFT
 10
0.0
 20
0.0
 30
0.0
  9
$UCSORGRIGHT
 10
0.0
 20
0.0
 30
0.0
  9
$UCSORGFRONT
 10
0.0
 20
0.0
 30
0.0
  9
$UCSORGBACK
 10
0.0
 20
0.0
 30
0.0
  9
$PUCSBASE
  2

  9
$PUCSNAME
  2

  9
$PUCSORG
 10
0.0
 20
0.0
 30
0.0
  9
$PUCSXDIR
 10
1.0
 20
0.0
 30
0.0
  9
$PUCSYDIR
 10
0.0
 20
1.0
 30
0.0
  9
$PUCSORTHOREF
  2

  9
$PUCSORTHOVIEW
 70
     0
  9
$PUCSORGTOP
 10
0.0
 20
0.0
 30
0.0
  9
$PUCSORGBOTTOM
 10
0.0
 20
0.0
 30
0.0
  9
$PUCSORGLEFT
 10
0.0
 20
0.0
 30
0.0
  9
$PUCSORGRIGHT
 10
0.0
 20
0.0
 30
0.0
  9
$PUCSORGFRONT
 10
0.0
 20
0.0
 30
0.0
  9
$PUCSORGBACK
 10
0.0
 20
0.0
 30
0.0
  9
$USERI1
 70
     0
  9
$USERI2
 70
     0
  9
$USERI3
 70
     0
  9
$USERI4
 70
     0
  9
$USERI5
 70
     0
  9
$USERR1
 40
18.1
  9
$USERR2
 40
0.0
  9
$USERR3
 40
0.0
  9
$USERR4
 40
0.0
  9
$USERR5
 40
0.0
  9
$WORLDVIEW
 70
     1
  9
$SHADEDGE
 70
     3
  9
$SHADEDIF
 70
    70
  9
$TILEMODE
 70
     1
  9
$MAXACTVP
 70
    64
  9
$PINSBASE
 10
0.0
 20
0.0
 30
0.0
  9
$PLIMCHECK
 70
     0
  9
$PEXTMIN
 10
1.00000000000000E+20
 20
1.00000000000000E+20
 30
1.00000000000000E+20
  9
$PEXTMAX
 10
-1.00000000000000E+20
 20
-1.00000000000000E+20
 30
-1.00000000000000E+20
  9
$PLIMMIN
 10
0.0
 20
0.0
  9
$PLIMMAX
 10
12.0
 20
9.0
  9
$UNITMODE
 70
     0
  9
$VISRETAIN
 70
     1
  9
$PLINEGEN
 70
     0
  9
$PSLTSCALE
 70
     1
  9
$TREEDEPTH
 70
  3020
  9
$CMLSTYLE
  2
Standard
  9
$CMLJUST
 70
     0
  9
$CMLSCALE
 40
1.0
  9
$PROXYGRAPHICS
 70
     1
  9
$MEASUREMENT
 70
     1
  9
$CELWEIGHT
370
    -1
  9
$ENDCAPS
280
     0
  9
$JOINSTYLE
280
     0
  9
$LWDISPLAY
290
     0
  9
$INSUNITS
 70
     4
  9
$HYPERLINKBASE
  1

  9
$STYLESHEET
  1

  9
$XEDIT
290
     1
  9
$CEPSNTYPE
380
     0
  9
$PSTYLEMODE
290
     1
  9
$FINGERPRINTGUID
  2
{4633599A-0E03-4DA6-A77F-AA78F10BB842}
  9
$VERSIONGUID
  2
{FAEB1C32-E019-11D5-929B-00C0DF256EC4}
  9
$EXTNAMES
290
     1
  9
$PSVPSCALE
 40
0.0
  9
$OLESTARTUP
290
     0
  0
ENDSEC
  0
SECTION
  2
CLASSES
  0
CLASS
  1
ACDBDICTIONARYWDFLT
  2
AcDbDictionaryWithDefault
  3
ObjectDBX Classes
 90
        0
280
     0
281
     0
  0
CLASS
  1
VISUALSTYLE
  2
AcDbVisualStyle
  3
ObjectDBX Classes
 90
     4095
280
     0
281
     0
  0
CLASS
  1
MATERIAL
  2
AcDbMaterial
  3
ObjectDBX Classes
 90
     1153
280
     0
281
     0
  0
CLASS
  1
DICTIONARYVAR
  2
AcDbDictionaryVar
  3
ObjectDBX Classes
 90
        0
280
     0
281
     0
  0
CLASS
  1
ACDBPLACEHOLDER
  2
AcDbPlaceHolder
  3
ObjectDBX Classes
 90
        0
280
     0
281
     0
  0
CLASS
  1
LAYOUT
  2
AcDbLayout
  3
ObjectDBX Classes
 90
        0
280
     0
281
     0
  0
ENDSEC
  0
SECTION
  2
TABLES
  0
TABLE
  2
VPORT
  5
8
330
0
100
AcDbSymbolTable
 70
     1
  0
VPORT
  5
29
330
8
100
AcDbSymbolTableRecord
100
AcDbViewportTableRecord
  2
*Active
 70
     0
 10
0.0
 20
0.0
 11
1.0
 21
1.0
 12
148.5000000000001
 22
105.0000000000001
 13
0.0
 23
0.0
 14
0.5
 24
0.5
 15
0.5
 25
0.5
 16
0.0
 26
0.0
 36
1.0
 17
0.0
 27
0.0
 37
0.0
 40
231.0000000000002
 41
1.60267857142857
 42
50.0
 43
0.0
 44
0.0
 50
0.0
 51
0.0
 71
     0
 72
   100
 73
     1
 74
     3
 75
     0
 76
     0
 77
     0
 78
     0
281
     0
 65
     1
110
0.0
120
0.0
130
0.0
111
1.0
121
0.0
131
0.0
112
0.0
122
1.0
132
0.0
 79
     0
146
0.0
  0
ENDTAB
  0
TABLE
  2
LTYPE
  5
5
330
0
100
AcDbSymbolTable
 70
     8
  0
LTYPE
  5
14
330
5
100
AcDbSymbolTableRecord
100
AcDbLinetypeTableRecord
  2
ByBlock
 70
     0
  3

 72
    65
 73
     0
 40
0.0
  0
LTYPE
  5
15
330
5
100
AcDbSymbolTableRecord
100
AcDbLinetypeTableRecord
  2
ByLayer
 70
     0
  3

 72
    65
 73
     0
 40
0.0
  0
LTYPE
  5
16
330
5
100
AcDbSymbolTableRecord
100
AcDbLinetypeTableRecord
  2
Continuous
 70
     0
  3
Solid line
 72
    65
 73
     0
 40
0.0
  0
LTYPE
  5
3F
330
5
100
AcDbSymbolTableRecord
100
AcDbLinetypeTableRecord
  2
DASHED
 70
     0
  3
Dashed
 72
    65
 73
     2
 40
15.0
 49
7.0
 74
     0
 49
-8.0
 74
     0
  0
LTYPE
  5
40
330
5
100
AcDbSymbolTableRecord
100
AcDbLinetypeTableRecord
  2
DOTTED
 70
     0
  3
Dotted
 72
    65
 73
     2
 40
1.0
 49
0.0
 74
     0
 49
-1.0
 74
     0
  0
LTYPE
  5
41
330
5
100
AcDbSymbolTableRecord
100
AcDbLinetypeTableRecord
  2
DOT_CENTER
 70
     0
  3
Dot_Center
 72
    65
 73
     4
 40
14.0
 49
12.0
 74
     0
 49
-1.0
 74
     0
 49
0.0
 74
     0
 49
-1.0
 74
     0
  0
LTYPE
  5
42
330
5
100
AcDbSymbolTableRecord
100
AcDbLinetypeTableRecord
  2
LONG_DASHED
 70
     0
  3
Long_Dashed
 72
    65
 73
     2
 40
15.0
 49
10.0
 74
     0
 49
-5.0
 74
     0
  0
LTYPE
  5
43
330
5
100
AcDbSymbolTableRecord
100
AcDbLinetypeTableRecord
  2
DASH_CENTER
 70
     0
  3
Dash_Center
 72
    65
 73
     4
 40
14.0
 49
11.0
 74
     0
 49
-1.0
 74
     0
 49
1.0
 74
     0
 49
-1.0
 74
     0
  0
LTYPE
  5
44
330
5
100
AcDbSymbolTableRecord
100
AcDbLinetypeTableRecord
  2
PHANTOM
 70
     0
  3
Phantom
 72
    65
 73
     6
 40
13.0
 49
10.0
 74
     0
 49
-1.0
 74
     0
 49
0.0
 74
     0
 49
-1.0
 74
     0
 49
0.0
 74
     0
 49
-1.0
 74
     0
  0
LTYPE
  5
45
330
5
100
AcDbSymbolTableRecord
100
AcDbLinetypeTableRecord
  2
CENTER_DASH_DASH
 70
     0
  3
Center_Dash_Dash
 72
    65
 73
     6
 40
14.0
 49
9.0
 74
     0
 49
-1.0
 74
     0
 49
1.0
 74
     0
 49
-1.0
 74
     0
 49
1.0
 74
     0
 49
-1.0
 74
     0
  0
ENDTAB
  0
TABLE
  2
LAYER
  5
2
330
0
100
AcDbSymbolTable
 70
     3
  0
LAYER
  5
10
330
2
100
AcDbSymbolTableRecord
100
AcDbLayerTableRecord
  2
0
 70
     0
 62
     7
  6
Continuous
370
    -3
390
F
  0
LAYER
  5
46
330
2
100
AcDbSymbolTableRecord
100
AcDbLayerTableRecord
  2
1
 70
     0
 62
     7
  6
Continuous
370
    -3
390
F
  0
LAYER
  5
47
330
2
100
AcDbSymbolTableRecord
100
AcDbLayerTableRecord
  2
Sichtbare_Kanten_TC_020513_DIN_
 70
     0
 62
     7
  6
Continuous
370
    -3
390
F
  0
ENDTAB
  0
TABLE
  2
STYLE
  5
3
330
0
100
AcDbSymbolTable
 70
     5
  0
STYLE
  5
11
330
3
100
AcDbSymbolTableRecord
100
AcDbTextStyleTableRecord
  2
Standard
 70
     0
 40
0.0
 41
1.0
 50
0.0
 71
     0
 42
0.2
  3
txt
  4

  0
STYLE
  5
9C
330
3
100
AcDbSymbolTableRecord
100
AcDbTextStyleTableRecord
  2
CONVERTER_11
 70
     0
 40
0.0
 41
1.2
 50
0.0
 71
     0
 42
0.2
  3
ARIAL.TTF
  4

  0
STYLE
  5
A1
330
3
100
AcDbSymbolTableRecord
100
AcDbTextStyleTableRecord
  2
CONVERTER_12
 70
     0
 40
0.0
 41
1.38
 50
0.0
 71
     0
 42
0.2
  3
ARIAL.TTF
  4

  0
STYLE
  5
A4
330
3
100
AcDbSymbolTableRecord
100
AcDbTextStyleTableRecord
  2
CONVERTER_13
 70
     0
 40
0.0
 41
1.08
 50
0.0
 71
     0
 42
0.2
  3
ARIAL.TTF
  4

  0
STYLE
  5
37E
330
3
100
AcDbSymbolTableRecord
100
AcDbTextStyleTableRecord
  2
CONVERTER_14
 70
     0
 40
0.0
 41
0.95
 50
0.0
 71
     0
 42
0.2
  3
simplex.shx
  4

  0
ENDTAB
  0
TABLE
  2
VIEW
  5
6
330
0
100
AcDbSymbolTable
 70
     0
  0
ENDTAB
  0
TABLE
  2
UCS
  5
7
330
0
100
AcDbSymbolTable
 70
     0
  0
ENDTAB
  0
TABLE
  2
APPID
  5
9
330
0
100
AcDbSymbolTable
 70
     1
  0
APPID
  5
12
330
9
100
AcDbSymbolTableRecord
100
AcDbRegAppTableRecord
  2
ACAD
 70
     0
  0
ENDTAB
  0
TABLE
  2
DIMSTYLE
  5
A
330
0
100
AcDbSymbolTable
 70
     6
100
AcDbDimStyleTable
  0
DIMSTYLE
105
27
330
A
100
AcDbSymbolTableRecord
100
AcDbDimStyleTableRecord
  2
Standard
 70
     0
178
     0
340
11
  0
DIMSTYLE
105
38A
102
{ACAD_REACTORS
330
38B
102
}
330
A
100
AcDbSymbolTableRecord
100
AcDbDimStyleTableRecord
  2
ME10_DIM_10
 70
     0
 41
3.0
 42
0.5
 44
1.0
 73
     0
 74
     0
 77
     1
 78
     8
140
3.0
147
2.0
172
     1
173
     1
174
     1
175
     1
176
     2
177
     2
271
     2
178
     4
271
     2
340
37E
  0
DIMSTYLE
105
395
102
{ACAD_REACTORS
330
396
102
}
330
A
100
AcDbSymbolTableRecord
100
AcDbDimStyleTableRecord
  2
ME10_DIM_11
 70
     0
 41
3.0
 42
0.5
 44
1.0
 73
     0
 74
     0
 77
     1
 78
     8
140
3.0
147
2.0
172
     1
173
     1
174
     1
175
     1
176
     2
177
     2
271
     2
178
     4
271
     2
340
37E
  0
DIMSTYLE
105
3A0
102
{ACAD_REACTORS
330
3A1
102
}
330
A
100
AcDbSymbolTableRecord
100
AcDbDimStyleTableRecord
  2
ME10_DIM_12
 70
     0
 41
3.0
 42
0.5
 44
1.0
 73
     0
 74
     0
 77
     1
 78
     8
140
3.0
147
2.0
172
     1
173
     1
174
     1
175
     1
176
     2
177
     2
271
     2
178
     4
271
     2
340
37E
  0
DIMSTYLE
105
3AB
102
{ACAD_REACTORS
330
3AC
102
}
330
A
100
AcDbSymbolTableRecord
100
AcDbDimStyleTableRecord
  2
ME10_DIM_13
 70
     0
 41
3.0
 42
0.5
 44
1.0
 73
     0
 74
     0
 77
     1
 78
     8
140
3.0
147
2.0
172
     1
173
     1
174
     1
175
     1
176
     2
177
     2
271
     2
178
     4
271
     2
340
37E
  0
DIMSTYLE
105
3B6
102
{ACAD_REACTORS
330
3B7
102
}
330
A
100
AcDbSymbolTableRecord
100
AcDbDimStyleTableRecord
  2
ME10_DIM_14
 70
     0
 41
3.0
 42
0.5
 44
1.0
 73
     0
 74
     0
 77
     1
 78
     8
140
3.0
147
2.0
172
     1
173
     1
174
     1
175
     1
176
     2
177
     2
271
     2
178
     4
271
     2
340
37E
  0
ENDTAB
  0
TABLE
  2
BLOCK_RECORD
  5
1
330
0
100
AcDbSymbolTable
 70
     8
  0
BLOCK_RECORD
  5
1F
330
1
100
AcDbSymbolTableRecord
100
AcDbBlockTableRecord
  2
*Model_Space
340
22
  0
BLOCK_RECORD
  5
1B
330
1
100
AcDbSymbolTableRecord
100
AcDbBlockTableRecord
  2
*Paper_Space
340
1E
  0
BLOCK_RECORD
  5
23
330
1
100
AcDbSymbolTableRecord
100
AcDbBlockTableRecord
  2
*Paper_Space0
340
26
  0
BLOCK_RECORD
  5
48
330
1
100
AcDbSymbolTableRecord
100
AcDbBlockTableRecord
  2
_formato_A4
340
0
102
{BLKREFS
331
4C
102
}
  0
BLOCK_RECORD
  5
4B
330
1
100
AcDbSymbolTableRecord
100
AcDbBlockTableRecord
  2
A4_oriz
340
0
102
{BLKREFS
331
4F
102
}
  0
BLOCK_RECORD
  5
381
330
1
100
AcDbSymbolTableRecord
100
AcDbBlockTableRecord
  2
*D3
340
0
  0
BLOCK_RECORD
  5
38C
330
1
100
AcDbSymbolTableRecord
100
AcDbBlockTableRecord
  2
*D4
340
0
  0
BLOCK_RECORD
  5
397
330
1
100
AcDbSymbolTableRecord
100
AcDbBlockTableRecord
  2
*D5
340
0
  0
BLOCK_RECORD
  5
3A2
330
1
100
AcDbSymbolTableRecord
100
AcDbBlockTableRecord
  2
*D6
340
0
  0
BLOCK_RECORD
  5
3AD
330
1
100
AcDbSymbolTableRecord
100
AcDbBlockTableRecord
  2
*D7
340
0
  0
ENDTAB
  0
ENDSEC
  0
SECTION
  2
BLOCKS
  0
BLOCK
  5
20
330
1F
100
AcDbEntity
  8
0
100
AcDbBlockBegin
  2
*Model_Space
 70
     0
 10
0.0
 20
0.0
 30
0.0
  3
*Model_Space
  1

  0
ENDBLK
  5
21
330
1F
100
AcDbEntity
  8
0
100
AcDbBlockEnd
  0
BLOCK
  5
1C
330
1B
100
AcDbEntity
 67
     1
  8
0
100
AcDbBlockBegin
  2
*Paper_Space
 70
     0
 10
0.0
 20
0.0
 30
0.0
  3
*Paper_Space
  1

  0
ENDBLK
  5
1D
330
1B
100
AcDbEntity
 67
     1
  8
0
100
AcDbBlockEnd
  0
BLOCK
  5
24
330
23
100
AcDbEntity
  8
0
100
AcDbBlockBegin
  2
*Paper_Space0
 70
     0
 10
0.0
 20
0.0
 30
0.0
  3
*Paper_Space0
  1

  0
ENDBLK
  5
25
330
23
100
AcDbEntity
  8
0
100
AcDbBlockEnd
  0
BLOCK
  5
49
330
48
100
AcDbEntity
  8
0
100
AcDbBlockBegin
  2
_formato_A4
 70
     0
 10
-851.9009473860199
 20
25.56141494573951
 30
0.0
  3
_formato_A4
  1

  0
LINE
  5
50
330
48
100
AcDbEntity
  8
1
  6
Continuous
 62
     7
100
AcDbLine
 10
-1040.90094738602
 20
35.56141494573937
 30
0.0
 11
-1010.90094738602
 21
35.56141494573937
 31
0.0
  0
LINE
  5
51
330
48
100
AcDbEntity
  8
1
  6
Continuous
 62
     7
100
AcDbLine
 10
-1040.90094738602
 20
40.5614149457394
 30
0.0
 11
-1010.90094738602
 21
40.5614149457394
 31
0.0
  0
LINE
  5
52
330
48
100
AcDbEntity
  8
1
  6
Continuous
 62
     7
100
AcDbLine
 10
-900.9009473860199
 20
45.56141494573951
 30
0.0
 11
-900.9009473860199
 21
30.56141494573951
 31
0.0
  0
LINE
  5
53
330
48
100
AcDbEntity
  8
1
  6
Continuous
 62
     7
100
AcDbLine
 10
-883.548346008534
 20
45.5614149457395
 30
0.0
 11
-883.548346008534
 21
30.56141494573951
 31
0.0
  0
LINE
  5
54
330
48
100
AcDbEntity
  8
1
  6
Continuous
 62
     7
100
AcDbLine
 10
-1010.90094738602
 20
45.5614149457395
 30
0.0
 11
-1010.90094738602
 21
30.56141494573951
 31
0.0
  0
LINE
  5
55
330
48
100
AcDbEntity
  8
1
  6
Continuous
 62
     7
100
AcDbLine
 10
-1000.40094738602
 20
235.5614149457397
 30
0.0
 11
-1000.40094738602
 21
220.5614149457397
 31
0.0
  0
LINE
  5
56
330
48
100
AcDbEntity
  8
1
  6
Continuous
 62
     7
100
AcDbLine
 10
-1148.90094738602
 20
25.56141494573951
 30
0.0
 11
-851.9009473860199
 21
25.56141494573951
 31
0.0
  0
LINE
  5
57
330
48
100
AcDbEntity
  8
1
  6
Continuous
 62
     7
100
AcDbLine
 10
-1148.90094738602
 20
235.5614149457397
 30
0.0
 11
-1148.90094738602
 21
25.56141494573951
 31
0.0
  0
LINE
  5
58
330
48
100
AcDbEntity
  8
1
  6
Continuous
 62
     7
100
AcDbLine
 10
-851.9009473860199
 20
235.5614149457397
 30
0.0
 11
-1148.90094738602
 21
235.5614149457397
 31
0.0
  0
LINE
  5
59
330
48
100
AcDbEntity
  8
1
  6
Continuous
 62
     7
100
AcDbLine
 10
-851.9009473860199
 20
25.56141494573951
 30
0.0
 11
-851.9009473860199
 21
235.5614149457397
 31
0.0
  0
LINE
  5
5A
330
48
100
AcDbEntity
  8
1
  6
Continuous
 62
     7
100
AcDbLine
 10
-1143.90094738602
 20
30.56141494573951
 30
0.0
 11
-856.9009473860199
 21
30.56141494573951
 31
0.0
  0
LINE
  5
5B
330
48
100
AcDbEntity
  8
1
  6
Continuous
 62
     7
100
AcDbLine
 10
-856.9009473860199
 20
30.56141494573951
 30
0.0
 11
-856.9009473860199
 21
214.5614149457396
 31
0.0
  0
LINE
  5
5C
330
48
100
AcDbEntity
  8
1
  6
Continuous
 62
     7
100
AcDbLine
 10
-856.9009473860199
 20
214.5614149457396
 30
0.0
 11
-1143.90094738602
 21
214.5614149457396
 31
0.0
  0
LINE
  5
5D
102
{ACAD_REACTORS
330
AB
102
}
330
48
100
AcDbEntity
  8
1
  6
Continuous
 62
     7
100
AcDbLine
 10
-867.8913133639439
 20
35.63891478557214
 30
0.0
 11
-867.8913133639439
 21
40.48391510590689
 31
0.0
  0
LINE
  5
5E
102
{ACAD_REACTORS
330
A8
102
}
330
48
100
AcDbEntity
  8
1
  6
Continuous
 62
     7
100
AcDbLine
 10
-869.224646697277
 20
38.06141494573951
 30
0.0
 11
-869.224646697277
 21
39.79346575330835
 31
0.0
  0
LINE
  5
5F
102
{ACAD_REACTORS
330
A8
102
}
330
48
100
AcDbEntity
  8
1
  6
Continuous
 62
     7
100
AcDbLine
 10
-869.224646697277
 20
39.79346575330835
 30
0.0
 11
-870.0803091299799
 21
38.31141494573951
 31
0.0
  0
LINE
  5
60
102
{ACAD_REACTORS
330
A8
102
}
330
48
100
AcDbEntity
  8
1
  6
Continuous
 62
     7
100
AcDbLine
 10
-870.3689842645749
 20
38.31141494573951
 30
0.0
 11
-871.224646697277
 21
39.79346575330835
 31
0.0
  0
LINE
  5
61
102
{ACAD_REACTORS
330
A8
102
}
330
48
100
AcDbEntity
  8
1
  6
Continuous
 62
     7
100
AcDbLine
 10
-871.224646697277
 20
39.79346575330835
 30
0.0
 11
-871.224646697277
 21
38.06141494573951
 31
0.0
  0
LINE
  5
62
330
48
100
AcDbEntity
  8
1
  6
Continuous
 62
     7
100
AcDbLine
 10
-878.641081972419
 20
38.20577921008085
 30
0.0
 11
-870.224646697277
 21
43.0614149457395
 31
0.0
  0
LINE
  5
63
330
48
100
AcDbEntity
  8
1
  6
Continuous
 62
     7
100
AcDbLine
 10
-870.224646697277
 20
43.0614149457395
 30
0.0
 11
-861.8082114221361
 21
38.20577921008085
 31
0.0
  0
LINE
  5
64
330
48
100
AcDbEntity
  8
1
  6
Continuous
 62
     7
100
AcDbLine
 10
-861.8082114221361
 20
37.91705068139807
 30
0.0
 11
-870.224646697277
 21
33.06141494573951
 31
0.0
  0
LINE
  5
65
330
48
100
AcDbEntity
  8
1
  6
Continuous
 62
     7
100
AcDbLine
 10
-870.224646697277
 20
33.06141494573951
 30
0.0
 11
-878.641081972419
 21
37.91705068139807
 31
0.0
  0
LINE
  5
66
102
{ACAD_REACTORS
330
A8
102
}
330
48
100
AcDbEntity
  8
1
  6
Continuous
 62
     7
100
AcDbLine
 10
-871.8913133639439
 20
38.06141494573951
 30
0.0
 11
-871.8913133639439
 21
41.29263225777409
 31
0.0
  0
LINE
  5
67
102
{ACAD_REACTORS
330
A8
102
}
330
48
100
AcDbEntity
  8
1
  6
Continuous
 62
     7
100
AcDbLine
 10
-871.396879680321
 20
41.4251153640118
 30
0.0
 11
-870.224646697277
 21
39.39474827907277
 31
0.0
  0
LINE
  5
68
102
{ACAD_REACTORS
330
A8
102
}
330
48
100
AcDbEntity
  8
1
  6
Continuous
 62
     7
100
AcDbLine
 10
-871.8913133639439
 20
38.06141494573951
 30
0.0
 11
-871.8913133639439
 21
36.40900001837242
 31
0.0
  0
LINE
  5
69
102
{ACAD_REACTORS
330
A8
102
}
330
48
100
AcDbEntity
  8
1
  6
Continuous
 62
     7
100
AcDbLine
 10
-871.224646697277
 20
36.40900001837242
 30
0.0
 11
-871.224646697277
 21
38.06141494573951
 31
0.0
  0
LINE
  5
6A
102
{ACAD_REACTORS
330
A8
102
}
330
48
100
AcDbEntity
  8
1
  6
Continuous
 62
     7
100
AcDbLine
 10
-869.224646697277
 20
38.06141494573951
 30
0.0
 11
-869.224646697277
 21
34.86968401634131
 31
0.0
  0
LINE
  5
6B
102
{ACAD_REACTORS
330
A8
102
}
330
48
100
AcDbEntity
  8
1
  6
Continuous
 62
     7
100
AcDbLine
 10
-868.5579800306109
 20
34.86968401634131
 30
0.0
 11
-868.5579800306109
 21
41.29263225777409
 31
0.0
  0
LINE
  5
6C
102
{ACAD_REACTORS
330
A8
102
}
330
48
100
AcDbEntity
  8
1
  6
Continuous
 62
     7
100
AcDbLine
 10
-869.052413714234
 20
41.4251153640118
 30
0.0
 11
-870.224646697277
 21
39.39474827907277
 31
0.0
  0
LINE
  5
6D
102
{ACAD_REACTORS
330
A9
102
}
330
48
100
AcDbEntity
  8
1
  6
Continuous
 62
     7
100
AcDbLine
 10
-873.224646697277
 20
35.8314360937721
 30
0.0
 11
-873.224646697277
 21
40.48391510590689
 31
0.0
  0
LINE
  5
6E
102
{ACAD_REACTORS
330
A9
102
}
330
48
100
AcDbEntity
  8
1
  6
Continuous
 62
     7
100
AcDbLine
 10
-872.5579800306109
 20
40.48391510590689
 30
0.0
 11
-872.5579800306109
 21
35.83143609377221
 31
0.0
  0
LINE
  5
6F
102
{ACAD_REACTORS
330
A9
102
}
330
48
100
AcDbEntity
  8
1
  6
Continuous
 62
     7
100
AcDbLine
 10
-872.5579800306109
 20
35.83143609377221
 30
0.0
 11
-870.3914058794469
 21
34.58148946810111
 31
0.0
  0
LINE
  5
70
102
{ACAD_REACTORS
330
A9
102
}
330
48
100
AcDbEntity
  8
1
  6
Continuous
 62
     7
100
AcDbLine
 10
-870.724554181774
 20
34.00403241073532
 30
0.0
 11
-872.8911283329369
 21
35.25397903640642
 31
0.0
  0
LINE
  5
71
102
{ACAD_REACTORS
330
AA
102
}
330
48
100
AcDbEntity
  8
1
  6
Continuous
 62
     7
100
AcDbLine
 10
-873.8913133639439
 20
39.71468433667617
 30
0.0
 11
-873.8913133639439
 21
36.60066686300281
 31
0.0
  0
LINE
  5
72
102
{ACAD_REACTORS
330
AA
102
}
330
48
100
AcDbEntity
  8
1
  6
Continuous
 62
     7
100
AcDbLine
 10
-873.8913133639439
 20
36.60066686300281
 30
0.0
 11
-873.8913133639439
 21
36.40814555480274
 31
0.0
  0
LINE
  5
73
102
{ACAD_REACTORS
330
AA
102
}
330
48
100
AcDbEntity
  8
1
  6
Continuous
 62
     7
100
AcDbLine
 10
-874.5579800306109
 20
36.40814555480274
 30
0.0
 11
-874.5579800306109
 21
39.71468433667617
 31
0.0
  0
LINE
  5
74
102
{ACAD_REACTORS
330
AB
102
}
330
48
100
AcDbEntity
  8
1
  6
Continuous
 62
     7
100
AcDbLine
 10
-867.3914058794469
 20
40.77264363458978
 30
0.0
 11
-866.0580725461141
 21
40.00341286535895
 31
0.0
  0
LINE
  5
75
102
{ACAD_REACTORS
330
AB
102
}
330
48
100
AcDbEntity
  8
1
  6
Continuous
 62
     7
100
AcDbLine
 10
-866.3912208484401
 20
39.42595580799328
 30
0.0
 11
-867.224646697277
 21
39.90677841309146
 31
0.0
  0
LINE
  5
76
102
{ACAD_REACTORS
330
AB
102
}
330
48
100
AcDbEntity
  8
1
  6
Continuous
 62
     7
100
AcDbLine
 10
-867.224646697277
 20
39.90677841309146
 30
0.0
 11
-867.224646697277
 21
38.39474827907277
 31
0.0
  0
LINE
  5
77
102
{ACAD_REACTORS
330
AB
102
}
330
48
100
AcDbEntity
  8
1
  6
Continuous
 62
     7
100
AcDbLine
 10
-867.224646697277
 20
38.39474827907277
 30
0.0
 11
-866.224646697277
 21
38.39474827907277
 31
0.0
  0
LINE
  5
78
102
{ACAD_REACTORS
330
AB
102
}
330
48
100
AcDbEntity
  8
1
  6
Continuous
 62
     7
100
AcDbLine
 10
-866.224646697277
 20
37.72808161240614
 30
0.0
 11
-867.224646697277
 21
37.72808161240614
 31
0.0
  0
LINE
  5
79
102
{ACAD_REACTORS
330
AB
102
}
330
48
100
AcDbEntity
  8
1
  6
Continuous
 62
     7
100
AcDbLine
 10
-867.224646697277
 20
37.72808161240614
 30
0.0
 11
-867.224646697277
 21
36.21605147838746
 31
0.0
  0
LINE
  5
7A
102
{ACAD_REACTORS
330
AB
102
}
330
48
100
AcDbEntity
  8
1
  6
Continuous
 62
     7
100
AcDbLine
 10
-867.224646697277
 20
36.21605147838746
 30
0.0
 11
-866.3912208484401
 21
36.69687408348575
 31
0.0
  0
LINE
  5
7B
102
{ACAD_REACTORS
330
AB
102
}
330
48
100
AcDbEntity
  8
1
  6
Continuous
 62
     7
100
AcDbLine
 10
-866.0580725461141
 20
36.11941702611985
 30
0.0
 11
-867.3914058794469
 21
35.35018625688925
 31
0.0
  0
LINE
  5
7C
330
48
100
AcDbEntity
  8
1
  6
Continuous
 62
     7
100
AcDbLine
 10
-1040.90094738602
 20
50.5614149457395
 30
0.0
 11
-856.9009473860199
 21
50.56141494573951
 31
0.0
  0
LINE
  5
7D
330
48
100
AcDbEntity
  8
1
  6
Continuous
 62
     7
100
AcDbLine
 10
-1033.90094738602
 20
45.5614149457395
 30
0.0
 11
-1033.90094738602
 21
50.56141494573951
 31
0.0
  0
LINE
  5
7E
330
48
100
AcDbEntity
  8
1
  6
Continuous
 62
     7
100
AcDbLine
 10
-1015.90094738602
 20
45.5614149457395
 30
0.0
 11
-1015.90094738602
 21
50.5614149457395
 31
0.0
  0
LINE
  5
7F
330
48
100
AcDbEntity
  8
1
  6
Continuous
 62
     7
100
AcDbLine
 10
-1040.90094738602
 20
55.5614149457395
 30
0.0
 11
-856.9009473860199
 21
55.56141494573951
 31
0.0
  0
LINE
  5
80
330
48
100
AcDbEntity
  8
1
  6
Continuous
 62
     7
100
AcDbLine
 10
-1033.90094738602
 20
50.56141494573951
 30
0.0
 11
-1033.90094738602
 21
55.5614149457395
 31
0.0
  0
LINE
  5
81
330
48
100
AcDbEntity
  8
1
  6
Continuous
 62
     7
100
AcDbLine
 10
-1015.90094738602
 20
50.5614149457395
 30
0.0
 11
-1015.90094738602
 21
55.56141494573951
 31
0.0
  0
LINE
  5
82
330
48
100
AcDbEntity
  8
1
  6
Continuous
 62
     7
100
AcDbLine
 10
-1040.90094738602
 20
60.5614149457395
 30
0.0
 11
-856.9009473860199
 21
60.5614149457395
 31
0.0
  0
LINE
  5
83
330
48
100
AcDbEntity
  8
1
  6
Continuous
 62
     7
100
AcDbLine
 10
-1033.90094738602
 20
55.5614149457395
 30
0.0
 11
-1033.90094738602
 21
60.5614149457395
 31
0.0
  0
LINE
  5
84
330
48
100
AcDbEntity
  8
1
  6
Continuous
 62
     7
100
AcDbLine
 10
-1015.90094738602
 20
55.56141494573951
 30
0.0
 11
-1015.90094738602
 21
60.56141494573951
 31
0.0
  0
LINE
  5
85
330
48
100
AcDbEntity
  8
1
  6
Continuous
 62
     7
100
AcDbLine
 10
-1040.90094738602
 20
65.56141494573951
 30
0.0
 11
-856.9009473860199
 21
65.56141494573951
 31
0.0
  0
LINE
  5
86
330
48
100
AcDbEntity
  8
1
  6
Continuous
 62
     7
100
AcDbLine
 10
-1033.90094738602
 20
60.5614149457395
 30
0.0
 11
-1033.90094738602
 21
65.56141494573951
 31
0.0
  0
LINE
  5
87
330
48
100
AcDbEntity
  8
1
  6
Continuous
 62
     7
100
AcDbLine
 10
-1015.90094738602
 20
60.56141494573951
 30
0.0
 11
-1015.90094738602
 21
65.56141494573951
 31
0.0
  0
LINE
  5
88
330
48
100
AcDbEntity
  8
1
  6
Continuous
 62
     7
100
AcDbLine
 10
-1143.90094738602
 20
214.5614149457396
 30
0.0
 11
-1143.90094738602
 21
30.56141494573951
 31
0.0
  0
LINE
  5
89
330
48
100
AcDbEntity
  8
1
  6
Continuous
 62
     7
100
AcDbLine
 10
-1040.90094738602
 20
45.5614149457395
 30
0.0
 11
-856.9009473860199
 21
45.5614149457395
 31
0.0
  0
LINE
  5
8A
330
48
100
AcDbEntity
  8
1
  6
Continuous
 62
     7
100
AcDbLine
 10
-1040.90094738602
 20
30.5614149457394
 30
0.0
 11
-1040.90094738602
 21
65.56141494573951
 31
0.0
  0
ARC
  5
8B
102
{ACAD_REACTORS
330
A8
102
}
330
48
100
AcDbEntity
  8
1
  6
Continuous
 62
     7
100
AcDbCircle
 10
-871.626347151469
 20
41.29263225777409
 30
0.0
 40
0.264966212475135
100
AcDbArc
 50
30.00000000003666
 51
180.0
  0
ARC
  5
8C
102
{ACAD_REACTORS
330
A8
102
}
330
48
100
AcDbEntity
  8
1
  6
Continuous
 62
     7
100
AcDbCircle
 10
-871.5579800306109
 20
36.40900001837242
 30
0.0
 40
0.3333333333330302
100
AcDbArc
 50
180.0
 51
0.0
  0
ARC
  5
8D
102
{ACAD_REACTORS
330
A8
102
}
330
48
100
AcDbEntity
  8
1
  6
Continuous
 62
     7
100
AcDbCircle
 10
-868.8913133639439
 20
34.86968401634131
 30
0.0
 40
0.3333333333330302
100
AcDbArc
 50
180.0
 51
0.0
  0
ARC
  5
8E
102
{ACAD_REACTORS
330
A8
102
}
330
48
100
AcDbEntity
  8
1
  6
Continuous
 62
     7
100
AcDbCircle
 10
-868.8229462430859
 20
41.29263225777409
 30
0.0
 40
0.2649662124749739
100
AcDbArc
 50
0.0
 51
149.9999999999879
  0
ARC
  5
8F
102
{ACAD_REACTORS
330
A9
102
}
330
48
100
AcDbEntity
  8
1
  6
Continuous
 62
     7
100
AcDbCircle
 10
-872.8913133639439
 20
40.48391510590689
 30
0.0
 40
0.3333333333330302
100
AcDbArc
 50
0.0
 51
180.0
  0
ARC
  5
90
102
{ACAD_REACTORS
330
A9
102
}
330
48
100
AcDbEntity
  8
1
  6
Continuous
 62
     7
100
AcDbCircle
 10
-870.5579800306109
 20
34.29276093941822
 30
0.0
 40
0.3333333333333202
100
AcDbArc
 50
240.0183606311669
 51
60.01836063103026
  0
ARC
  5
91
102
{ACAD_REACTORS
330
AA
102
}
330
48
100
AcDbEntity
  8
1
  6
Continuous
 62
     7
100
AcDbCircle
 10
-874.224646697277
 20
39.71468433667617
 30
0.0
 40
0.3333333333330302
100
AcDbArc
 50
0.0
 51
180.0
  0
ARC
  5
92
102
{ACAD_REACTORS
330
AA
102
}
330
48
100
AcDbEntity
  8
1
  6
Continuous
 62
     7
100
AcDbCircle
 10
-874.224646697277
 20
36.40814555480274
 30
0.0
 40
0.3333333333339397
100
AcDbArc
 50
180.0
 51
0.0
  0
ARC
  5
93
102
{ACAD_REACTORS
330
AB
102
}
330
48
100
AcDbEntity
  8
1
  6
Continuous
 62
     7
100
AcDbCircle
 10
-866.224646697277
 20
39.71468433667617
 30
0.0
 40
0.3333333333333079
100
AcDbArc
 50
240.0183606311657
 51
60.01836063119038
  0
ARC
  5
94
102
{ACAD_REACTORS
330
AB
102
}
330
48
100
AcDbEntity
  8
1
  6
Continuous
 62
     7
100
AcDbCircle
 10
-866.224646697277
 20
38.06141494573951
 30
0.0
 40
0.3333333333333641
100
AcDbArc
 50
270.0
 51
90.0
  0
ARC
  5
95
102
{ACAD_REACTORS
330
AB
102
}
330
48
100
AcDbEntity
  8
1
  6
Continuous
 62
     7
100
AcDbCircle
 10
-866.224646697277
 20
36.40814555480274
 30
0.0
 40
0.3333333333332005
100
AcDbArc
 50
299.9816393687998
 51
119.9816393688239
  0
ARC
  5
96
102
{ACAD_REACTORS
330
A8
102
}
330
48
100
AcDbEntity
  8
1
  6
Continuous
 62
     7
100
AcDbCircle
 10
-870.224646697277
 20
38.39474827907277
 30
0.0
 40
0.1666666666671054
100
AcDbArc
 50
209.9999999998856
 51
329.999999999958
  0
ARC
  5
97
102
{ACAD_REACTORS
330
A9
102
}
330
48
100
AcDbEntity
  8
1
  6
Continuous
 62
     7
100
AcDbCircle
 10
-872.5579800306109
 20
35.83143609377221
 30
0.0
 40
0.6666666666660603
100
AcDbArc
 50
180.0000000000097
 51
240.0183606311832
  0
ARC
  5
98
330
48
100
AcDbEntity
  8
1
  6
Continuous
 62
     7
100
AcDbCircle
 10
-878.5577948968371
 20
38.06141494573951
 30
0.0
 40
0.1666666666667352
100
AcDbArc
 50
119.9816393689536
 51
240.0183606310635
  0
ARC
  5
99
330
48
100
AcDbEntity
  8
1
  6
Continuous
 62
     7
100
AcDbCircle
 10
-861.8914984977171
 20
38.06141494573951
 30
0.0
 40
0.1666666666663668
100
AcDbArc
 50
299.9816393686656
 51
60.01836063131725
  0
ARC
  5
9A
102
{ACAD_REACTORS
330
AB
102
}
330
48
100
AcDbEntity
  8
1
  6
Continuous
 62
     7
100
AcDbCircle
 10
-867.5579800306109
 20
40.48391510590689
 30
0.0
 40
0.3333333333337624
100
AcDbArc
 50
60.01836063103026
 51
180.0
  0
ARC
  5
9B
102
{ACAD_REACTORS
330
AB
102
}
330
48
100
AcDbEntity
  8
1
  6
Continuous
 62
     7
100
AcDbCircle
 10
-867.5579800306109
 20
35.63891478557214
 30
0.0
 40
0.3333333333330302
100
AcDbArc
 50
180.0
 51
299.9816393689698
  0
MTEXT
  5
9D
330
48
100
AcDbEntity
  8
1
 62
     7
100
AcDbMText
 10
-1029.30094738602
 20
33.06141494573939
 30
0.0
 40
3.0
 41
0.0
 71
     4
 72
     1
  1
Pezzimenti
  7
CONVERTER_11
 73
     1
 44
1.32052821128451
  0
MTEXT
  5
9E
330
48
100
AcDbEntity
  8
1
 62
     7
100
AcDbMText
 10
-1039.90094738602
 20
33.06141494573939
 30
0.0
 40
3.0
 41
0.0
 71
     4
 72
     1
  1
Sign.
  7
CONVERTER_11
 73
     1
 44
1.32052821128451
  0
MTEXT
  5
9F
330
48
100
AcDbEntity
  8
1
 62
     7
100
AcDbMText
 10
-1029.30094738602
 20
38.06141494573939
 30
0.0
 40
3.0
 41
0.0
 71
     4
 72
     1
  1
20/06/14
  7
CONVERTER_11
 73
     1
 44
1.32052821128451
  0
MTEXT
  5
A0
330
48
100
AcDbEntity
  8
1
 62
     7
100
AcDbMText
 10
-1039.90094738602
 20
38.06141494573939
 30
0.0
 40
3.0
 41
0.0
 71
     4
 72
     1
  1
Date
  7
CONVERTER_11
 73
     1
 44
1.32052821128451
  0
MTEXT
  5
A2
330
48
100
AcDbEntity
  8
1
 62
     7
100
AcDbMText
 10
-1025.90094738602
 20
43.06141494573946
 30
0.0
 40
2.5
 41
0.0
 71
     5
 72
     1
  1
dimensions in mm
  7
CONVERTER_12
 73
     1
 44
0.60024009603842
  0
MTEXT
  5
A3
330
48
100
AcDbEntity
  8
1
 62
     7
100
AcDbMText
 10
-997.40094738602
 20
219.5614149457397
 30
0.0
 40
4.0
 41
0.0
 71
     5
 72
     1
  1
Diritti riservati      All rights reserved
  7
CONVERTER_11
 73
     1
 44
1.32052821128451
  0
MTEXT
  5
A5
330
48
100
AcDbEntity
  8
1
 62
     7
100
AcDbMText
 10
-1009.624646697277
 20
38.06141494573951
 30
0.0
 40
4.5
 41
0.0
 71
     4
 72
     1
  1
MFVN 06 LG25\PHood with lever, top entry M25, high construction - LS TYPE
  7
CONVERTER_13
 73
     1
 44
0.90036014405762
  0
MTEXT
  5
A6
330
48
100
AcDbEntity
  8
1
 62
     7
100
AcDbMText
 10
-892.224646697277
 20
41.82205436649549
 30
0.0
 40
3.0
 41
0.0
 71
     5
 72
     1
  1
Scale
  7
CONVERTER_11
 73
     1
 44
1.32052821128451
  0
MTEXT
  5
A7
330
48
100
AcDbEntity
  8
1
 62
     7
100
AcDbMText
 10
-892.224646697277
 20
35.62205436649556
 30
0.0
 40
4.5
 41
0.0
 71
     5
 72
     1
  1
1:1
  7
CONVERTER_11
 73
     1
 44
1.32052821128451
  0
HATCH
  5
A8
330
48
100
AcDbEntity
  8
1
  6
Continuous
 62
     7
100
AcDbHatch
 10
0.0
 20
0.0
 30
0.0
210
0.0
220
0.0
230
1.0
  2
SOLID
 70
     1
 71
     1
 91
        1
 92
        1
 93
       16
 72
     2
 10
-871.626347151469
 20
41.29263225777409
 40
0.264966212475135
 50
30.00000000003666
 51
180.0
 73
     1
 72
     1
 10
-871.8913133639439
 20
41.29263225777409
 11
-871.8913133639439
 21
38.06141494573951
 72
     1
 10
-871.8913133639439
 20
38.06141494573951
 11
-871.8913133639439
 21
36.40900001837242
 72
     2
 10
-871.5579800306109
 20
36.40900001837242
 40
0.3333333333330302
 50
180.0
 51
360.0
 73
     1
 72
     1
 10
-871.224646697277
 20
36.40900001837242
 11
-871.224646697277
 21
38.06141494573951
 72
     1
 10
-871.224646697277
 20
38.06141494573951
 11
-871.224646697277
 21
39.79346575330835
 72
     1
 10
-871.224646697277
 20
39.79346575330835
 11
-870.3689842645749
 21
38.31141494573951
 72
     2
 10
-870.224646697277
 20
38.39474827907277
 40
0.1666666666671054
 50
209.9999999998856
 51
329.999999999958
 73
     1
 72
     1
 10
-870.0803091299799
 20
38.31141494573951
 11
-869.224646697277
 21
39.79346575330835
 72
     1
 10
-869.224646697277
 20
39.79346575330835
 11
-869.224646697277
 21
38.06141494573951
 72
     1
 10
-869.224646697277
 20
38.06141494573951
 11
-869.224646697277
 21
34.86968401634131
 72
     2
 10
-868.8913133639439
 20
34.86968401634131
 40
0.3333333333330302
 50
180.0
 51
360.0
 73
     1
 72
     1
 10
-868.5579800306109
 20
34.86968401634131
 11
-868.5579800306109
 21
41.29263225777409
 72
     2
 10
-868.8229462430859
 20
41.29263225777409
 40
0.2649662124749739
 50
0.0
 51
149.9999999999879
 73
     1
 72
     1
 10
-869.052413714234
 20
41.4251153640118
 11
-870.224646697277
 21
39.39474827907277
 72
     1
 10
-870.224646697277
 20
39.39474827907277
 11
-871.396879680321
 21
41.4251153640118
 97
       16
330
6C
330
8E
330
6B
330
8D
330
6A
330
5E
330
5F
330
96
330
60
330
61
330
69
330
8C
330
68
330
66
330
8B
330
67
 75
     0
 76
     1
 98
        1
 10
0.0
 20
0.0
  0
HATCH
  5
A9
330
48
100
AcDbEntity
  8
1
  6
Continuous
 62
     7
100
AcDbHatch
 10
0.0
 20
0.0
 30
0.0
210
0.0
220
0.0
230
1.0
  2
SOLID
 70
     1
 71
     1
 91
        1
 92
        1
 93
        7
 72
     1
 10
-872.5579800306109
 20
40.48391510590689
 11
-872.5579800306109
 21
35.83143609377221
 72
     1
 10
-872.5579800306109
 20
35.83143609377221
 11
-870.3914058794469
 21
34.58148946810111
 72
     2
 10
-870.5579800306109
 20
34.29276093941822
 40
0.3333333333333202
 50
299.9816393689698
 51
479.9816393688332
 73
     0
 72
     1
 10
-870.724554181774
 20
34.00403241073532
 11
-872.8911283329369
 21
35.25397903640642
 72
     2
 10
-872.5579800306109
 20
35.83143609377221
 40
0.6666666666660603
 50
119.9816393688168
 51
179.9999999999902
 73
     0
 72
     1
 10
-873.224646697277
 20
35.8314360937721
 11
-873.224646697277
 21
40.48391510590689
 72
     2
 10
-872.8913133639439
 20
40.48391510590689
 40
0.3333333333330302
 50
180.0
 51
360.0
 73
     0
 97
        7
330
6E
330
6F
330
90
330
70
330
97
330
6D
330
8F
 75
     0
 76
     1
 98
        1
 10
0.0
 20
0.0
  0
HATCH
  5
AA
330
48
100
AcDbEntity
  8
1
  6
Continuous
 62
     7
100
AcDbHatch
 10
0.0
 20
0.0
 30
0.0
210
0.0
220
0.0
230
1.0
  2
SOLID
 70
     1
 71
     1
 91
        1
 92
        1
 93
        5
 72
     1
 10
-873.8913133639439
 20
39.71468433667617
 11
-873.8913133639439
 21
36.60066686300281
 72
     1
 10
-873.8913133639439
 20
36.60066686300281
 11
-873.8913133639439
 21
36.40814555480274
 72
     2
 10
-874.224646697277
 20
36.40814555480274
 40
0.3333333333339397
 50
0.0
 51
180.0
 73
     0
 72
     1
 10
-874.5579800306109
 20
36.40814555480274
 11
-874.5579800306109
 21
39.71468433667617
 72
     2
 10
-874.224646697277
 20
39.71468433667617
 40
0.3333333333330302
 50
180.0
 51
360.0
 73
     0
 97
        5
330
71
330
72
330
92
330
73
330
91
 75
     0
 76
     1
 98
        1
 10
0.0
 20
0.0
  0
HATCH
  5
AB
330
48
100
AcDbEntity
  8
1
  6
Continuous
 62
     7
100
AcDbHatch
 10
0.0
 20
0.0
 30
0.0
210
0.0
220
0.0
230
1.0
  2
SOLID
 70
     1
 71
     1
 91
        1
 92
        1
 93
       14
 72
     1
 10
-866.3912208484401
 20
39.42595580799328
 11
-867.224646697277
 21
39.90677841309146
 72
     1
 10
-867.224646697277
 20
39.90677841309146
 11
-867.224646697277
 21
38.39474827907277
 72
     1
 10
-867.224646697277
 20
38.39474827907277
 11
-866.224646697277
 21
38.39474827907277
 72
     2
 10
-866.224646697277
 20
38.06141494573951
 40
0.3333333333333641
 50
270.0
 51
450.0
 73
     0
 72
     1
 10
-866.224646697277
 20
37.72808161240614
 11
-867.224646697277
 21
37.72808161240614
 72
     1
 10
-867.224646697277
 20
37.72808161240614
 11
-867.224646697277
 21
36.21605147838746
 72
     1
 10
-867.224646697277
 20
36.21605147838746
 11
-866.3912208484401
 21
36.69687408348575
 72
     2
 10
-866.224646697277
 20
36.40814555480274
 40
0.3333333333332005
 50
240.0183606311761
 51
420.0183606312001
 73
     0
 72
     1
 10
-866.0580725461141
 20
36.11941702611985
 11
-867.3914058794469
 21
35.35018625688925
 72
     2
 10
-867.5579800306109
 20
35.63891478557214
 40
0.3333333333330302
 50
60.01836063103026
 51
180.0
 73
     0
 72
     1
 10
-867.8913133639439
 20
35.63891478557214
 11
-867.8913133639439
 21
40.48391510590689
 72
     2
 10
-867.5579800306109
 20
40.48391510590689
 40
0.3333333333337624
 50
180.0
 51
299.9816393689698
 73
     0
 72
     1
 10
-867.3914058794469
 20
40.77264363458978
 11
-866.0580725461141
 21
40.00341286535895
 72
     2
 10
-866.224646697277
 20
39.71468433667617
 40
0.3333333333333079
 50
299.9816393688097
 51
479.9816393688344
 73
     0
 97
       14
330
74
330
9A
330
5D
330
9B
330
7B
330
95
330
7A
330
79
330
78
330
94
330
77
330
76
330
75
330
93
 75
     0
 76
     1
 98
        1
 10
0.0
 20
0.0
  0
ENDBLK
  5
4A
330
48
100
AcDbEntity
  8
0
100
AcDbBlockEnd
  0
BLOCK
  5
4D
330
4B
100
AcDbEntity
  8
0
100
AcDbBlockBegin
  2
A4_oriz
 70
     0
 10
297.0000000000002
 20
0.0
 30
0.0
  3
A4_oriz
  1

  0
INSERT
  5
4C
330
4B
100
AcDbEntity
  8
1
100
AcDbBlockReference
  2
_formato_A4
 10
297.0000000000002
 20
0.0
 30
0.0
  0
ENDBLK
  5
4E
330
4B
100
AcDbEntity
  8
0
100
AcDbBlockEnd
  0
BLOCK
  5
388
330
381
100
AcDbEntity
  8
0
100
AcDbBlockBegin
  2
*D3
 70
     1
 10
0.0
 20
0.0
 30
0.0
  3
*D3
  1

  0
LINE
  5
382
330
381
100
AcDbEntity
  8
1
  6
Continuous
 62
     2
100
AcDbLine
 10
252.5189993024622
 20
52.1037158659009
 30
0.0
 11
190.832365348278
 21
52.1037158659009
 31
0.0
  0
LINE
  5
383
330
381
100
AcDbEntity
  8
1
  6
Continuous
 62
     2
100
AcDbLine
 10
252.5189993024622
 20
93.01542976884282
 30
0.0
 11
252.5189993024622
 21
51.1037158659009
 31
0.0
  0
LINE
  5
384
330
381
100
AcDbEntity
  8
1
  6
Continuous
 62
     2
100
AcDbLine
 10
190.832365348278
 20
80.01542976884052
 30
0.0
 11
190.832365348278
 21
51.1037158659009
 31
0.0
  0
SOLID
  5
385
330
381
100
AcDbEntity
  8
1
 62
     2
100
AcDbTrace
 10
249.5189993024622
 20
51.70875837313871
 30
0.0
 11
249.5189993024622
 21
52.49867335866309
 31
0.0
 12
252.5189993024622
 22
52.1037158659009
 32
0.0
 13
252.5189993024622
 23
52.1037158659009
 33
0.0
  0
SOLID
  5
386
330
381
100
AcDbEntity
  8
1
 62
     2
100
AcDbTrace
 10
193.832365348278
 20
52.49867335866309
 30
0.0
 11
193.832365348278
 21
51.70875837313871
 31
0.0
 12
190.832365348278
 22
52.1037158659009
 32
0.0
 13
190.832365348278
 23
52.1037158659009
 33
0.0
  0
MTEXT
  5
387
330
381
100
AcDbEntity
  8
1
 62
     4
100
AcDbMText
 10
217.5506823253701
 20
54.4037158659009
 30
0.0
 40
3.0
 41
0.0
 71
     7
 72
     1
  1
62,5
  7
CONVERTER_14
 11
0.9999999999970619
 21
2.424068405545306E-6
 31
0.0
 73
     1
 44
0.60024009603842
  0
ENDBLK
  5
389
330
381
100
AcDbEntity
  8
0
100
AcDbBlockEnd
  0
BLOCK
  5
393
330
38C
100
AcDbEntity
  8
0
100
AcDbBlockBegin
  2
*D4
 70
     1
 10
0.0
 20
0.0
 30
0.0
  3
*D4
  1

  0
LINE
  5
38D
330
38C
100
AcDbEntity
  8
1
  6
Continuous
 62
     2
100
AcDbLine
 10
190.7323655225109
 20
172.988200988027
 30
0.0
 11
233.7323653482696
 21
172.988200988027
 31
0.0
  0
LINE
  5
38E
330
38C
100
AcDbEntity
  8
1
  6
Continuous
 62
     2
100
AcDbLine
 10
190.7323655225109
 20
156.01449638404
 30
0.0
 11
190.7323655225109
 21
173.988200988027
 31
0.0
  0
LINE
  5
38F
330
38C
100
AcDbEntity
  8
1
  6
Continuous
 62
     2
100
AcDbLine
 10
233.7323653482696
 20
156.0154297688453
 30
0.0
 11
233.7323653482696
 21
173.988200988027
 31
0.0
  0
SOLID
  5
390
330
38C
100
AcDbEntity
  8
1
 62
     2
100
AcDbTrace
 10
193.7323655225109
 20
173.3831584807892
 30
0.0
 11
193.7323655225109
 21
172.5932434952648
 31
0.0
 12
190.7323655225109
 22
172.988200988027
 32
0.0
 13
190.7323655225109
 23
172.988200988027
 33
0.0
  0
SOLID
  5
391
330
38C
100
AcDbEntity
  8
1
 62
     2
100
AcDbTrace
 10
230.7323653482696
 20
172.5932434952648
 30
0.0
 11
230.7323653482696
 21
173.3831584807892
 31
0.0
 12
233.7323653482696
 22
172.988200988027
 32
0.0
 13
233.7323653482696
 23
172.988200988027
 33
0.0
  0
MTEXT
  5
392
330
38C
100
AcDbEntity
  8
1
 62
     4
100
AcDbMText
 10
210.0323653482776
 20
174.988200988027
 30
0.0
 40
3.0
 41
0.0
 71
     7
 72
     1
  1
43
  7
CONVERTER_14
 11
0.9999999999970619
 21
2.424068405545306E-6
 31
0.0
 73
     1
 44
0.60024009603842
  0
ENDBLK
  5
394
330
38C
100
AcDbEntity
  8
0
100
AcDbBlockEnd
  0
BLOCK
  5
39E
330
397
100
AcDbEntity
  8
0
100
AcDbBlockBegin
  2
*D5
 70
     1
 10
0.0
 20
0.0
 30
0.0
  3
*D5
  1

  0
LINE
  5
398
330
397
100
AcDbEntity
  8
1
  6
Continuous
 62
     2
100
AcDbLine
 10
175.312243644034
 20
158.0154297688407
 30
0.0
 11
175.312243644034
 21
80.5154297688405
 31
0.0
  0
LINE
  5
399
330
397
100
AcDbEntity
  8
1
  6
Continuous
 62
     2
100
AcDbLine
 10
190.332365348278
 20
80.5154297688405
 30
0.0
 11
174.312243644034
 21
80.5154297688405
 31
0.0
  0
LINE
  5
39A
330
397
100
AcDbEntity
  8
1
  6
Continuous
 62
     2
100
AcDbLine
 10
192.7323653482692
 20
158.0154297688407
 30
0.0
 11
174.312243644034
 21
158.0154297688407
 31
0.0
  0
SOLID
  5
39B
330
397
100
AcDbEntity
  8
1
 62
     2
100
AcDbTrace
 10
175.7072011367962
 20
155.0154297688407
 30
0.0
 11
174.9172861512718
 21
155.0154297688407
 31
0.0
 12
175.312243644034
 22
158.0154297688407
 32
0.0
 13
175.312243644034
 23
158.0154297688407
 33
0.0
  0
SOLID
  5
39C
330
397
100
AcDbEntity
  8
1
 62
     2
100
AcDbTrace
 10
174.9172861512718
 20
83.5154297688405
 30
0.0
 11
175.7072011367962
 21
83.5154297688405
 31
0.0
 12
175.312243644034
 22
80.5154297688405
 32
0.0
 13
175.312243644034
 23
80.5154297688405
 33
0.0
  0
MTEXT
  5
39D
330
397
100
AcDbEntity
  8
1
 62
     4
100
AcDbMText
 10
173.012243644034
 20
115.1404297688406
 30
0.0
 40
3.0
 41
0.0
 71
     7
 72
     1
  1
77,5
  7
CONVERTER_14
 11
0.0
 21
1.0
 31
0.0
 73
     1
 44
0.60024009603842
  0
ENDBLK
  5
39F
330
397
100
AcDbEntity
  8
0
100
AcDbBlockEnd
  0
BLOCK
  5
3A9
330
3A2
100
AcDbEntity
  8
0
100
AcDbBlockBegin
  2
*D6
 70
     1
 10
0.0
 20
0.0
 30
0.0
  3
*D6
  1

  0
LINE
  5
3A3
330
3A2
100
AcDbEntity
  8
1
  6
Continuous
 62
     2
100
AcDbLine
 10
84.33236473878057
 20
168.295407197524
 30
0.0
 11
109.3323647387806
 21
168.295407197524
 31
0.0
  0
LINE
  5
3A4
330
3A2
100
AcDbEntity
  8
1
  6
Continuous
 62
     2
100
AcDbLine
 10
109.3323647387806
 20
158.615429768845
 30
0.0
 11
109.3323647387806
 21
169.295407197524
 31
0.0
  0
LINE
  5
3A5
330
3A2
100
AcDbEntity
  8
1
  6
Continuous
 62
     2
100
AcDbLine
 10
84.33236473878057
 20
158.515429768845
 30
0.0
 11
84.33236473878057
 21
169.295407197524
 31
0.0
  0
SOLID
  5
3A6
330
3A2
100
AcDbEntity
  8
1
 62
     2
100
AcDbTrace
 10
87.33236473878057
 20
168.6903646902862
 30
0.0
 11
87.33236473878057
 21
167.9004497047618
 31
0.0
 12
84.33236473878057
 22
168.295407197524
 32
0.0
 13
84.33236473878057
 23
168.295407197524
 33
0.0
  0
SOLID
  5
3A7
330
3A2
100
AcDbEntity
  8
1
 62
     2
100
AcDbTrace
 10
106.3323647387806
 20
167.9004497047618
 30
0.0
 11
106.3323647387806
 21
168.6903646902862
 31
0.0
 12
109.3323647387806
 22
168.295407197524
 32
0.0
 13
109.3323647387806
 23
168.295407197524
 33
0.0
  0
MTEXT
  5
3A8
330
3A2
100
AcDbEntity
  8
1
 62
     4
100
AcDbMText
 10
92.93236473878056
 20
170.295407197524
 30
0.0
 40
3.0
 41
0.0
 71
     7
 72
     1
  1
M25
  7
CONVERTER_14
 11
0.9999999999970619
 21
2.424068405545306E-6
 31
0.0
 73
     1
 44
0.60024009603842
  0
ENDBLK
  5
3AA
330
3A2
100
AcDbEntity
  8
0
100
AcDbBlockEnd
  0
BLOCK
  5
3B4
330
3AD
100
AcDbEntity
  8
0
100
AcDbBlockBegin
  2
*D7
 70
     1
 10
0.0
 20
0.0
 30
0.0
  3
*D7
  1

  0
LINE
  5
3AE
330
3AD
100
AcDbEntity
  8
1
  6
Continuous
 62
     2
100
AcDbLine
 10
59.33236487431796
 20
52.1037158659009
 30
0.0
 11
134.332364874318
 21
52.1037158659009
 31
0.0
  0
LINE
  5
3AF
330
3AD
100
AcDbEntity
  8
1
  6
Continuous
 62
     2
100
AcDbLine
 10
134.332364874318
 20
68.0080189485851
 30
0.0
 11
134.332364874318
 21
51.1037158659009
 31
0.0
  0
LINE
  5
3B0
330
3AD
100
AcDbEntity
  8
1
  6
Continuous
 62
     2
100
AcDbLine
 10
59.33236487431796
 20
68.00801894858502
 30
0.0
 11
59.33236487431796
 21
51.1037158659009
 31
0.0
  0
SOLID
  5
3B1
330
3AD
100
AcDbEntity
  8
1
 62
     2
100
AcDbTrace
 10
62.33236487431796
 20
52.49867335866309
 30
0.0
 11
62.33236487431796
 21
51.70875837313871
 31
0.0
 12
59.33236487431796
 22
52.1037158659009
 32
0.0
 13
59.33236487431796
 23
52.1037158659009
 33
0.0
  0
SOLID
  5
3B2
330
3AD
100
AcDbEntity
  8
1
 62
     2
100
AcDbTrace
 10
131.332364874318
 20
51.70875837313871
 30
0.0
 11
131.332364874318
 21
52.49867335866309
 31
0.0
 12
134.332364874318
 22
52.1037158659009
 32
0.0
 13
134.332364874318
 23
52.1037158659009
 33
0.0
  0
MTEXT
  5
3B3
330
3AD
100
AcDbEntity
  8
1
 62
     4
100
AcDbMText
 10
94.58236487431796
 20
54.1037158659009
 30
0.0
 40
3.0
 41
0.0
 71
     7
 72
     1
  1
75
  7
CONVERTER_14
 11
0.9999999999970619
 21
2.424068405545306E-6
 31
0.0
 73
     1
 44
0.60024009603842
  0
ENDBLK
  5
3B5
330
3AD
100
AcDbEntity
  8
0
100
AcDbBlockEnd
  0
ENDSEC
  0
SECTION
  2
ENTITIES
  0
INSERT
  5
4F
330
1F
100
AcDbEntity
  8
0
100
AcDbBlockReference
  2
A4_oriz
 10
297.0000000000002
 20
0.0
 30
0.0
  0
LINE
  5
AC
330
1F
100
AcDbEntity
  8
1
  6
Continuous
 62
     7
100
AcDbLine
 10
126.832364874318
 20
86.01542976884461
 30
0.0
 11
126.832364874318
 21
85.5703599185566
 31
0.0
  0
LINE
  5
AD
330
1F
100
AcDbEntity
  8
1
  6
Continuous
 62
     7
100
AcDbLine
 10
66.83236487431796
 20
86.01542976884461
 30
0.0
 11
66.83236487431796
 21
85.57035991855656
 31
0.0
  0
LINE
  5
AE
330
1F
100
AcDbEntity
  8
0
  6
Continuous
 62
     7
100
AcDbLine
 10
128.832364874318
 20
91.01542976884282
 30
0.0
 11
128.832364874318
 21
87.6122283740056
 31
0.0
  0
LINE
  5
AF
330
1F
100
AcDbEntity
  8
0
  6
Continuous
 62
     7
100
AcDbLine
 10
126.832364874318
 20
91.01542976884282
 30
0.0
 11
126.832364874318
 21
86.01542976884461
 31
0.0
  0
LINE
  5
B0
330
1F
100
AcDbEntity
  8
1
  6
Continuous
 62
     7
100
AcDbLine
 10
126.832364874318
 20
91.01542976884282
 30
0.0
 11
128.832364874318
 21
91.01542976884282
 31
0.0
  0
LINE
  5
B1
330
1F
100
AcDbEntity
  8
0
  6
Continuous
 62
     7
100
AcDbLine
 10
128.832364874318
 20
96.01542976884282
 30
0.0
 11
128.832364874318
 21
91.01542976884282
 31
0.0
  0
LINE
  5
B2
330
1F
100
AcDbEntity
  8
0
  6
Continuous
 62
     7
100
AcDbLine
 10
126.832364874318
 20
96.01542976884282
 30
0.0
 11
126.832364874318
 21
91.01542976884282
 31
0.0
  0
LINE
  5
B3
330
1F
100
AcDbEntity
  8
1
  6
Continuous
 62
     7
100
AcDbLine
 10
126.832364874318
 20
96.01542976884282
 30
0.0
 11
128.832364874318
 21
96.01542976884282
 31
0.0
  0
LINE
  5
B4
330
1F
100
AcDbEntity
  8
0
  6
Continuous
 62
     7
100
AcDbLine
 10
66.83236487431796
 20
91.01542976884282
 30
0.0
 11
66.83236487431796
 21
96.01542976884282
 31
0.0
  0
LINE
  5
B5
330
1F
100
AcDbEntity
  8
1
  6
Continuous
 62
     7
100
AcDbLine
 10
64.83095432692423
 20
91.01542976884282
 30
0.0
 11
66.83236487431796
 21
91.01542976884282
 31
0.0
  0
LINE
  5
B6
330
1F
100
AcDbEntity
  8
0
  6
Continuous
 62
     7
100
AcDbLine
 10
64.8317760060643
 20
96.01542976884282
 30
0.0
 11
64.83236487431796
 21
99.5987521688662
 31
0.0
  0
LINE
  5
B7
330
1F
100
AcDbEntity
  8
0
  6
Continuous
 62
     7
100
AcDbLine
 10
66.83236487431796
 20
96.01542976884282
 30
0.0
 11
66.83236487431796
 21
98.26542976884302
 31
0.0
  0
LINE
  5
B8
330
1F
100
AcDbEntity
  8
1
  6
Continuous
 62
     7
100
AcDbLine
 10
64.8317760060643
 20
96.01542976884282
 30
0.0
 11
66.83236487431796
 21
96.01542976884282
 31
0.0
  0
LINE
  5
B9
330
1F
100
AcDbEntity
  8
0
  6
Continuous
 62
     7
100
AcDbLine
 10
109.3323647387806
 20
158.015429768845
 30
0.0
 11
112.204886137345
 21
158.015429768845
 31
0.0
  0
LINE
  5
BA
330
1F
100
AcDbEntity
  8
1
  6
Continuous
 62
     2
100
AcDbLine
 10
109.3323647387806
 20
158.015429768845
 30
0.0
 11
109.3323647387806
 21
158.115429768845
 31
0.0
  0
LINE
  5
BB
330
1F
100
AcDbEntity
  8
0
  6
Continuous
 62
     7
100
AcDbLine
 10
84.33236473878057
 20
158.015429768845
 30
0.0
 11
109.3323647387806
 21
158.015429768845
 31
0.0
  0
LINE
  5
BC
330
1F
100
AcDbEntity
  8
1
  6
Continuous
 62
     2
100
AcDbLine
 10
84.33236473878057
 20
158.015429768845
 30
0.0
 11
84.33236473878057
 21
158.115429768845
 31
0.0
  0
LINE
  5
BD
330
1F
100
AcDbEntity
  8
1
  6
Continuous
 62
     7
100
AcDbLine
 10
240.2711255867416
 20
68.5080189485851
 30
0.0
 11
240.2710861766235
 21
68.55886481470792
 31
0.0
  0
LINE
  5
BE
330
1F
100
AcDbEntity
  8
1
  6
Continuous
 62
     7
100
AcDbLine
 10
207.4711255867416
 20
68.5080189485851
 30
0.0
 11
240.2711255867416
 21
68.5080189485851
 31
0.0
  0
LINE
  5
BF
330
1F
100
AcDbEntity
  8
0
  6
Continuous
 62
     7
100
AcDbLine
 10
190.7323653482702
 20
149.5154297688404
 30
0.0
 11
191.7323653482703
 21
148.5154297688405
 31
0.0
  0
LINE
  5
C0
330
1F
100
AcDbEntity
  8
0
  6
Continuous
 62
     7
100
AcDbLine
 10
232.7323653482739
 20
117.5154297688452
 30
0.0
 11
232.7323653482704
 21
148.5154297688452
 31
0.0
  0
LINE
  5
C1
330
1F
100
AcDbEntity
  8
0
  6
Continuous
 62
     7
100
AcDbLine
 10
196.7323653482692
 20
158.0154297688411
 30
0.0
 11
193.2323653482692
 21
158.0154297688407
 31
0.0
  0
LINE
  5
C2
330
1F
100
AcDbEntity
  8
0
  6
Continuous
 62
     7
100
AcDbLine
 10
227.7323653482692
 20
158.0154297688446
 30
0.0
 11
196.7323653482692
 21
158.0154297688411
 31
0.0
  0
LINE
  5
C3
330
1F
100
AcDbEntity
  8
0
  6
Continuous
 62
     7
100
AcDbLine
 10
231.2323653482692
 20
158.015429768845
 30
0.0
 11
227.7323653482692
 21
158.0154297688446
 31
0.0
  0
LINE
  5
C4
330
1F
100
AcDbEntity
  8
0
  6
Continuous
 62
     7
100
AcDbLine
 10
191.7323653482703
 20
148.5154297688405
 30
0.0
 11
191.7323653482739
 21
117.5154297688405
 31
0.0
  0
LINE
  5
C5
330
1F
100
AcDbEntity
  8
0
  6
Continuous
 62
     7
100
AcDbLine
 10
191.4323653479613
 20
104.0654297685264
 30
0.0
 11
190.7323653482753
 21
104.7654297688404
 31
0.0
  0
LINE
  5
C6
330
1F
100
AcDbEntity
  8
0
  6
Continuous
 62
     7
100
AcDbLine
 10
233.732365348274
 20
116.5154297688453
 30
0.0
 11
232.7323653482739
 21
117.5154297688452
 31
0.0
  0
LINE
  5
C7
330
1F
100
AcDbEntity
  8
0
  6
Continuous
 62
     7
100
AcDbLine
 10
191.7323653482739
 20
117.5154297688405
 30
0.0
 11
190.732365348274
 21
116.5154297688404
 31
0.0
  0
LINE
  5
C8
330
1F
100
AcDbEntity
  8
0
  6
Continuous
 62
     7
100
AcDbLine
 10
233.7323653482749
 20
108.9401229611514
 30
0.0
 11
233.732365348274
 21
116.5154297688453
 31
0.0
  0
LINE
  5
C9
330
1F
100
AcDbEntity
  8
0
  6
Continuous
 62
     7
100
AcDbLine
 10
210.7323653482754
 20
104.0654297688427
 30
0.0
 11
196.7323653482754
 21
104.0654297688411
 31
0.0
  0
LINE
  5
CA
330
1F
100
AcDbEntity
  8
0
  6
Continuous
 62
     7
100
AcDbLine
 10
210.732365348275
 20
106.5654297688427
 30
0.0
 11
196.732365348275
 21
106.5654297688411
 31
0.0
  0
LINE
  5
CB
330
1F
100
AcDbEntity
  8
0
  6
Continuous
 62
     7
100
AcDbLine
 10
196.732365348275
 20
106.4654297688411
 30
0.0
 11
210.732365348275
 21
106.4654297688427
 31
0.0
  0
LINE
  5
CC
330
1F
100
AcDbEntity
  8
0
  6
Continuous
 62
     7
100
AcDbLine
 10
210.732365348275
 20
106.5654297688427
 30
0.0
 11
210.732365348275
 21
106.4654297688427
 31
0.0
  0
LINE
  5
CD
330
1F
100
AcDbEntity
  8
0
  6
Continuous
 62
     7
100
AcDbLine
 10
210.7323653482749
 20
107.2654297688427
 30
0.0
 11
210.732365348275
 21
106.5654297688427
 31
0.0
  0
LINE
  5
CE
330
1F
100
AcDbEntity
  8
0
  6
Continuous
 62
     7
100
AcDbLine
 10
210.7323653482753
 20
104.7654297688427
 30
0.0
 11
210.7323653482754
 21
104.0654297688427
 31
0.0
  0
LINE
  5
CF
330
1F
100
AcDbEntity
  8
0
  6
Continuous
 62
     7
100
AcDbLine
 10
210.7323653482754
 20
104.0654297688427
 30
0.0
 11
210.7323653482754
 21
103.9654297688427
 31
0.0
  0
LINE
  5
D0
330
1F
100
AcDbEntity
  8
0
  6
Continuous
 62
     7
100
AcDbLine
 10
191.432365347961
 20
106.4654297691546
 30
0.0
 11
190.7323653482752
 21
105.7654297688404
 31
0.0
  0
LINE
  5
D1
330
1F
100
AcDbEntity
  8
0
  6
Continuous
 62
     7
100
AcDbLine
 10
191.432365347961
 20
106.5654297685264
 30
0.0
 11
190.732365348589
 21
107.2654297691545
 31
0.0
  0
LINE
  5
D2
330
1F
100
AcDbEntity
  8
0
  6
Continuous
 62
     7
100
AcDbLine
 10
196.732365348275
 20
106.5654297688411
 30
0.0
 11
191.432365347961
 21
106.5654297685264
 31
0.0
  0
LINE
  5
D3
330
1F
100
AcDbEntity
  8
0
  6
Continuous
 62
     7
100
AcDbLine
 10
196.7323653482753
 20
104.7654297688411
 30
0.0
 11
190.7323653482753
 21
104.7654297688404
 31
0.0
  0
LINE
  5
D4
330
1F
100
AcDbEntity
  8
0
  6
Continuous
 62
     7
100
AcDbLine
 10
190.7323653482752
 20
105.7654297688404
 30
0.0
 11
196.7323653482752
 21
105.7654297688411
 31
0.0
  0
LINE
  5
D5
330
1F
100
AcDbEntity
  8
0
  6
Continuous
 62
     7
100
AcDbLine
 10
190.7323653482752
 20
105.7654297688404
 30
0.0
 11
190.7323653482753
 21
104.7654297688404
 31
0.0
  0
LINE
  5
D6
330
1F
100
AcDbEntity
  8
0
  6
Continuous
 62
     7
100
AcDbLine
 10
191.432365347961
 20
106.4654297691546
 30
0.0
 11
196.732365348275
 21
106.4654297688411
 31
0.0
  0
LINE
  5
D7
330
1F
100
AcDbEntity
  8
0
  6
Continuous
 62
     7
100
AcDbLine
 10
191.432365347961
 20
106.4654297691546
 30
0.0
 11
191.432365347961
 21
106.5654297685264
 31
0.0
  0
LINE
  5
D8
330
1F
100
AcDbEntity
  8
0
  6
Continuous
 62
     7
100
AcDbLine
 10
196.7323653482749
 20
107.2654297688411
 30
0.0
 11
190.732365348589
 21
107.2654297691545
 31
0.0
  0
LINE
  5
D9
330
1F
100
AcDbEntity
  8
0
  6
Continuous
 62
     7
100
AcDbLine
 10
190.7323653482749
 20
108.9401229611465
 30
0.0
 11
190.732365348589
 21
107.2654297691545
 31
0.0
  0
LINE
  5
DA
330
1F
100
AcDbEntity
  8
0
  6
Continuous
 62
     7
100
AcDbLine
 10
233.7323653479609
 20
107.2654297691594
 30
0.0
 11
233.7323653482749
 21
108.9401229611514
 31
0.0
  0
LINE
  5
DB
330
1F
100
AcDbEntity
  8
0
  6
Continuous
 62
     7
100
AcDbLine
 10
233.7323653479612
 20
104.7654297691594
 30
0.0
 11
233.732365347961
 21
105.7654297685312
 31
0.0
  0
LINE
  5
DC
330
1F
100
AcDbEntity
  8
0
  6
Continuous
 62
     7
100
AcDbLine
 10
233.0323653482753
 20
104.0654297688452
 30
0.0
 11
233.7323653479612
 21
104.7654297691594
 31
0.0
  0
LINE
  5
DD
330
1F
100
AcDbEntity
  8
0
  6
Continuous
 62
     7
100
AcDbLine
 10
227.7323653482754
 20
104.0654297685305
 30
0.0
 11
233.0323653482753
 21
104.0654297688452
 31
0.0
  0
LINE
  5
DE
330
1F
100
AcDbEntity
  8
0
  6
Continuous
 62
     7
100
AcDbLine
 10
233.0323653485895
 20
103.9654297691593
 30
0.0
 11
233.7323653482755
 21
103.2654297688453
 31
0.0
  0
LINE
  5
DF
330
1F
100
AcDbEntity
  8
0
  6
Continuous
 62
     7
100
AcDbLine
 10
233.7323653482756
 20
102.2654297688453
 30
0.0
 11
227.7323653482762
 21
102.2654297694728
 31
0.0
  0
LINE
  5
E0
330
1F
100
AcDbEntity
  8
0
  6
Continuous
 62
     7
100
AcDbLine
 10
233.7323653482756
 20
102.2654297688453
 30
0.0
 11
233.7323653482755
 21
103.2654297688453
 31
0.0
  0
LINE
  5
E1
330
1F
100
AcDbEntity
  8
0
  6
Continuous
 62
     7
100
AcDbLine
 10
233.0323653482753
 20
104.0654297688452
 30
0.0
 11
233.0323653485895
 21
103.9654297691593
 31
0.0
  0
LINE
  5
E2
330
1F
100
AcDbEntity
  8
0
  6
Continuous
 62
     7
100
AcDbLine
 10
233.7323653479612
 20
104.7654297691594
 30
0.0
 11
227.7323653482758
 21
104.7654297694728
 31
0.0
  0
LINE
  5
E3
330
1F
100
AcDbEntity
  8
0
  6
Continuous
 62
     7
100
AcDbLine
 10
233.0323653485891
 20
106.4654297691593
 30
0.0
 11
233.732365347961
 21
105.7654297685312
 31
0.0
  0
LINE
  5
E4
330
1F
100
AcDbEntity
  8
0
  6
Continuous
 62
     7
100
AcDbLine
 10
213.732365348275
 20
106.5654297688431
 30
0.0
 11
227.732365348275
 21
106.5654297688446
 31
0.0
  0
LINE
  5
E5
330
1F
100
AcDbEntity
  8
0
  6
Continuous
 62
     7
100
AcDbLine
 10
233.0323653485891
 20
106.5654297685311
 30
0.0
 11
233.7323653479609
 21
107.2654297691594
 31
0.0
  0
LINE
  5
E6
330
1F
100
AcDbEntity
  8
0
  6
Continuous
 62
     7
100
AcDbLine
 10
227.732365348275
 20
106.5654297688446
 30
0.0
 11
233.0323653485891
 21
106.5654297685311
 31
0.0
  0
LINE
  5
E7
330
1F
100
AcDbEntity
  8
0
  6
Continuous
 62
     7
100
AcDbLine
 10
233.7323653479609
 20
107.2654297691594
 30
0.0
 11
227.7323653482749
 21
107.2654297688446
 31
0.0
  0
LINE
  5
E8
330
1F
100
AcDbEntity
  8
0
  6
Continuous
 62
     7
100
AcDbLine
 10
213.732365348275
 20
106.465429768843
 30
0.0
 11
213.732365348275
 21
106.5654297688431
 31
0.0
  0
LINE
  5
E9
330
1F
100
AcDbEntity
  8
0
  6
Continuous
 62
     7
100
AcDbLine
 10
213.7323653482752
 20
105.765429768843
 30
0.0
 11
213.732365348275
 21
106.465429768843
 31
0.0
  0
LINE
  5
EA
330
1F
100
AcDbEntity
  8
0
  6
Continuous
 62
     7
100
AcDbLine
 10
227.7323653482752
 20
105.7654297688446
 30
0.0
 11
233.732365347961
 21
105.7654297685312
 31
0.0
  0
LINE
  5
EB
330
1F
100
AcDbEntity
  8
0
  6
Continuous
 62
     7
100
AcDbLine
 10
227.732365348275
 20
106.4654297688446
 30
0.0
 11
213.732365348275
 21
106.465429768843
 31
0.0
  0
LINE
  5
EC
330
1F
100
AcDbEntity
  8
0
  6
Continuous
 62
     7
100
AcDbLine
 10
233.0323653485891
 20
106.4654297691593
 30
0.0
 11
227.732365348275
 21
106.4654297688446
 31
0.0
  0
LINE
  5
ED
330
1F
100
AcDbEntity
  8
0
  6
Continuous
 62
     7
100
AcDbLine
 10
233.0323653485891
 20
106.5654297685311
 30
0.0
 11
233.0323653485891
 21
106.4654297691593
 31
0.0
  0
LINE
  5
EE
330
1F
100
AcDbEntity
  8
0
  6
Continuous
 62
     7
100
AcDbLine
 10
213.7323653482754
 20
104.0654297688431
 30
0.0
 11
227.7323653482754
 21
104.0654297685305
 31
0.0
  0
LINE
  5
EF
330
1F
100
AcDbEntity
  8
0
  6
Continuous
 62
     7
100
AcDbLine
 10
196.7323653482754
 20
103.9654297688411
 30
0.0
 11
210.7323653482754
 21
103.9654297688427
 31
0.0
  0
LINE
  5
F0
330
1F
100
AcDbEntity
  8
0
  6
Continuous
 62
     7
100
AcDbLine
 10
190.7323653482755
 20
103.2654297688404
 30
0.0
 11
196.7323653482755
 21
103.2654297688411
 31
0.0
  0
LINE
  5
F1
330
1F
100
AcDbEntity
  8
0
  6
Continuous
 62
     7
100
AcDbLine
 10
227.7323653482755
 20
103.2654297685305
 30
0.0
 11
233.7323653482755
 21
103.2654297688453
 31
0.0
  0
LINE
  5
F2
330
1F
100
AcDbEntity
  8
0
  6
Continuous
 62
     7
100
AcDbLine
 10
227.7323653482754
 20
103.9654297688446
 30
0.0
 11
213.7323653482754
 21
103.965429768843
 31
0.0
  0
LINE
  5
F3
330
1F
100
AcDbEntity
  8
0
  6
Continuous
 62
     7
100
AcDbLine
 10
213.7323653482755
 20
103.265429768843
 30
0.0
 11
213.7323653482754
 21
103.965429768843
 31
0.0
  0
LINE
  5
F4
330
1F
100
AcDbEntity
  8
0
  6
Continuous
 62
     7
100
AcDbLine
 10
233.0323653485895
 20
103.9654297691593
 30
0.0
 11
227.7323653482754
 21
103.9654297688446
 31
0.0
  0
LINE
  5
F5
330
1F
100
AcDbEntity
  8
0
  6
Continuous
 62
     7
100
AcDbLine
 10
191.4323653482754
 20
103.9654297688405
 30
0.0
 11
196.7323653482754
 21
103.9654297688411
 31
0.0
  0
LINE
  5
F6
330
1F
100
AcDbEntity
  8
0
  6
Continuous
 62
     7
100
AcDbLine
 10
213.7323653482754
 20
103.965429768843
 30
0.0
 11
213.7323653482754
 21
104.0654297688431
 31
0.0
  0
LINE
  5
F7
330
1F
100
AcDbEntity
  8
0
  6
Continuous
 62
     7
100
AcDbLine
 10
196.7323653482754
 20
104.0654297688411
 30
0.0
 11
191.4323653479613
 21
104.0654297685264
 31
0.0
  0
LINE
  5
F8
330
1F
100
AcDbEntity
  8
0
  6
Continuous
 62
     7
100
AcDbLine
 10
191.4323653482754
 20
103.9654297688405
 30
0.0
 11
191.4323653479613
 21
104.0654297685264
 31
0.0
  0
LINE
  5
F9
330
1F
100
AcDbEntity
  8
0
  6
Continuous
 62
     7
100
AcDbLine
 10
233.0323653482757
 20
101.5654297688452
 30
0.0
 11
233.7323653482756
 21
102.2654297688453
 31
0.0
  0
LINE
  5
FA
330
1F
100
AcDbEntity
  8
0
  6
Continuous
 62
     7
100
AcDbLine
 10
227.7323653482756
 20
101.5654297685305
 30
0.0
 11
233.0323653482757
 21
101.5654297688452
 31
0.0
  0
LINE
  5
FB
330
1F
100
AcDbEntity
  8
0
  6
Continuous
 62
     7
100
AcDbLine
 10
233.0323653482757
 20
101.5654297688452
 30
0.0
 11
233.0323653485898
 21
101.4654297691593
 31
0.0
  0
LINE
  5
FC
330
1F
100
AcDbEntity
  8
0
  6
Continuous
 62
     7
100
AcDbLine
 10
191.4323653482754
 20
103.9654297688405
 30
0.0
 11
190.7323653482755
 21
103.2654297688404
 31
0.0
  0
LINE
  5
FD
330
1F
100
AcDbEntity
  8
0
  6
Continuous
 62
     7
100
AcDbLine
 10
190.7323653482755
 20
103.2654297688404
 30
0.0
 11
190.7323653485896
 21
102.2654297691545
 31
0.0
  0
LINE
  5
FE
330
1F
100
AcDbEntity
  8
0
  6
Continuous
 62
     7
100
AcDbLine
 10
191.4323653482757
 20
101.4654297688405
 30
0.0
 11
190.7323653482758
 21
100.7654297688404
 31
0.0
  0
LINE
  5
FF
330
1F
100
AcDbEntity
  8
0
  6
Continuous
 62
     7
100
AcDbLine
 10
227.7323653482756
 20
101.4654297691587
 30
0.0
 11
213.7323653482756
 21
101.465429768843
 31
0.0
  0
LINE
  5
100
330
1F
100
AcDbEntity
  8
0
  6
Continuous
 62
     7
100
AcDbLine
 10
227.7323653482764
 20
100.7654297682164
 30
0.0
 11
233.7323653482758
 21
100.7654297688453
 31
0.0
  0
LINE
  5
101
330
1F
100
AcDbEntity
  8
0
  6
Continuous
 62
     7
100
AcDbLine
 10
213.7323653482758
 20
100.8638989971925
 30
0.0
 11
213.7323653482756
 21
101.465429768843
 31
0.0
  0
LINE
  5
102
330
1F
100
AcDbEntity
  8
0
  6
Continuous
 62
     7
100
AcDbLine
 10
210.7323653482756
 20
101.4654297688427
 30
0.0
 11
210.7323653482758
 21
100.8638989971922
 31
0.0
  0
LINE
  5
103
330
1F
100
AcDbEntity
  8
0
  6
Continuous
 62
     7
100
AcDbLine
 10
196.7323653482752
 20
100.7654297682129
 30
0.0
 11
210.3120789113086
 21
100.7654297688426
 31
0.0
  0
LINE
  5
104
330
1F
100
AcDbEntity
  8
0
  6
Continuous
 62
     7
100
AcDbLine
 10
227.7323653482758
 20
99.76542976884461
 30
0.0
 11
216.3781463362197
 21
99.76542976884342
 31
0.0
  0
LINE
  5
105
330
1F
100
AcDbEntity
  8
0
  6
Continuous
 62
     7
100
AcDbLine
 10
233.7323653482758
 20
99.76542976884532
 30
0.0
 11
227.7323653482758
 21
99.76542976884461
 31
0.0
  0
LINE
  5
106
330
1F
100
AcDbEntity
  8
0
  6
Continuous
 62
     7
100
AcDbLine
 10
233.0323653485898
 20
101.4654297691593
 30
0.0
 11
233.7323653482758
 21
100.7654297688453
 31
0.0
  0
LINE
  5
107
330
1F
100
AcDbEntity
  8
0
  6
Continuous
 62
     7
100
AcDbLine
 10
233.7323653482758
 20
99.76542976884532
 30
0.0
 11
233.7323653482758
 21
100.7654297688453
 31
0.0
  0
LINE
  5
108
330
1F
100
AcDbEntity
  8
0
  6
Continuous
 62
     7
100
AcDbLine
 10
210.7323653482749
 20
107.2654297688427
 30
0.0
 11
196.7323653482749
 21
107.2654297688411
 31
0.0
  0
LINE
  5
109
330
1F
100
AcDbEntity
  8
0
  6
Continuous
 62
     7
100
AcDbLine
 10
196.7323653482752
 20
105.7654297688411
 30
0.0
 11
210.7323653482752
 21
105.7654297688427
 31
0.0
  0
LINE
  5
10A
330
1F
100
AcDbEntity
  8
0
  6
Continuous
 62
     7
100
AcDbLine
 10
210.7323653482756
 20
102.2654297688427
 30
0.0
 11
196.7323653482749
 21
102.2654297694693
 31
0.0
  0
LINE
  5
10B
330
1F
100
AcDbEntity
  8
0
  6
Continuous
 62
     7
100
AcDbLine
 10
210.7323653482756
 20
101.5654297688427
 30
0.0
 11
196.7323653482756
 21
101.5654297688411
 31
0.0
  0
LINE
  5
10C
330
1F
100
AcDbEntity
  8
0
  6
Continuous
 62
     7
100
AcDbLine
 10
196.7323653482756
 20
101.4654297688411
 30
0.0
 11
210.7323653482756
 21
101.4654297688427
 31
0.0
  0
LINE
  5
10D
330
1F
100
AcDbEntity
  8
0
  6
Continuous
 62
     7
100
AcDbLine
 10
208.0865843603316
 20
99.76542976884242
 30
0.0
 11
196.7323653482753
 21
99.76542976946932
 31
0.0
  0
LINE
  5
10E
330
1F
100
AcDbEntity
  8
0
  6
Continuous
 62
     7
100
AcDbLine
 10
210.7323653482756
 20
101.5654297688427
 30
0.0
 11
210.7323653482756
 21
101.4654297688427
 31
0.0
  0
LINE
  5
10F
330
1F
100
AcDbEntity
  8
0
  6
Continuous
 62
     7
100
AcDbLine
 10
210.7323653482756
 20
102.2654297688427
 30
0.0
 11
210.7323653482756
 21
101.5654297688427
 31
0.0
  0
LINE
  5
110
330
1F
100
AcDbEntity
  8
0
  6
Continuous
 62
     7
100
AcDbLine
 10
210.7323653482753
 20
104.7654297688427
 30
0.0
 11
196.7323653482753
 21
104.7654297688411
 31
0.0
  0
LINE
  5
111
330
1F
100
AcDbEntity
  8
0
  6
Continuous
 62
     7
100
AcDbLine
 10
210.7323653482754
 20
103.9654297688427
 30
0.0
 11
210.7323653482755
 21
103.2654297688427
 31
0.0
  0
LINE
  5
112
330
1F
100
AcDbEntity
  8
0
  6
Continuous
 62
     7
100
AcDbLine
 10
196.7323653482755
 20
103.2654297688411
 30
0.0
 11
210.7323653482755
 21
103.2654297688427
 31
0.0
  0
LINE
  5
113
330
1F
100
AcDbEntity
  8
0
  6
Continuous
 62
     7
100
AcDbLine
 10
210.732365348275
 20
106.4654297688427
 30
0.0
 11
210.7323653482752
 21
105.7654297688427
 31
0.0
  0
LINE
  5
114
330
1F
100
AcDbEntity
  8
0
  6
Continuous
 62
     7
100
AcDbLine
 10
196.732365348276
 20
98.265429768527
 30
0.0
 11
206.428271965154
 21
98.2654297688422
 31
0.0
  0
LINE
  5
115
330
1F
100
AcDbEntity
  8
0
  6
Continuous
 62
     7
100
AcDbLine
 10
213.7323653482756
 20
101.5654297688431
 30
0.0
 11
213.7323653482756
 21
102.265429768843
 31
0.0
  0
LINE
  5
116
330
1F
100
AcDbEntity
  8
0
  6
Continuous
 62
     7
100
AcDbLine
 10
213.7323653482754
 20
104.0654297688431
 30
0.0
 11
213.7323653482753
 21
104.765429768843
 31
0.0
  0
LINE
  5
117
330
1F
100
AcDbEntity
  8
0
  6
Continuous
 62
     7
100
AcDbLine
 10
213.732365348275
 20
106.5654297688431
 30
0.0
 11
213.7323653482749
 21
107.265429768843
 31
0.0
  0
LINE
  5
118
330
1F
100
AcDbEntity
  8
0
  6
Continuous
 62
     7
100
AcDbLine
 10
196.732365348276
 20
98.96542976915522
 30
0.0
 11
207.0799387355039
 21
98.9654297688423
 31
0.0
  0
LINE
  5
119
330
1F
100
AcDbEntity
  8
0
  6
Continuous
 62
     7
100
AcDbLine
 10
207.1878138320358
 20
99.06542976884232
 30
0.0
 11
196.732365348276
 21
99.06542976852701
 31
0.0
  0
LINE
  5
11A
330
1F
100
AcDbEntity
  8
0
  6
Continuous
 62
     7
100
AcDbLine
 10
196.5533827360222
 20
86.015429768841
 30
0.0
 11
196.7323653482774
 21
86.01542976884112
 31
0.0
  0
LINE
  5
11B
330
1F
100
AcDbEntity
  8
0
  6
Continuous
 62
     7
100
AcDbLine
 10
232.7323653482704
 20
148.5154297688452
 30
0.0
 11
233.7323653482702
 21
149.5154297688453
 31
0.0
  0
LINE
  5
11C
330
1F
100
AcDbEntity
  8
0
  6
Continuous
 62
     7
100
AcDbLine
 10
190.7323655225109
 20
155.51449638404
 30
0.0
 11
190.7323653482702
 21
149.5154297688404
 31
0.0
  0
LINE
  5
11D
330
1F
100
AcDbEntity
  8
0
  6
Continuous
 62
     7
100
AcDbLine
 10
233.7323653482702
 20
149.5154297688453
 30
0.0
 11
233.7323653482696
 21
155.5154297688453
 31
0.0
  0
LINE
  5
11E
330
1F
100
AcDbEntity
  8
0
  6
Continuous
 62
     7
100
AcDbLine
 10
191.4323653479619
 20
99.06542976852641
 30
0.0
 11
190.73236534859
 21
99.76542976915452
 31
0.0
  0
LINE
  5
11F
330
1F
100
AcDbEntity
  8
0
  6
Continuous
 62
     7
100
AcDbLine
 10
191.4323653482757
 20
101.5654297688405
 30
0.0
 11
190.7323653485896
 21
102.2654297691545
 31
0.0
  0
LINE
  5
120
330
1F
100
AcDbEntity
  8
0
  6
Continuous
 62
     7
100
AcDbLine
 10
190.732365348274
 20
116.5154297688404
 30
0.0
 11
190.7323653482749
 21
108.9401229611465
 31
0.0
  0
LINE
  5
121
330
1F
100
AcDbEntity
  8
0
  6
Continuous
 62
     7
100
AcDbLine
 10
196.732365348276
 20
99.06542976852701
 30
0.0
 11
191.4323653479619
 21
99.06542976852641
 31
0.0
  0
LINE
  5
122
330
1F
100
AcDbEntity
  8
0
  6
Continuous
 62
     7
100
AcDbLine
 10
191.4323653482757
 20
101.4654297688405
 30
0.0
 11
196.7323653482756
 21
101.4654297688411
 31
0.0
  0
LINE
  5
123
330
1F
100
AcDbEntity
  8
0
  6
Continuous
 62
     7
100
AcDbLine
 10
196.7323653482756
 20
101.5654297688411
 30
0.0
 11
191.4323653482757
 21
101.5654297688405
 31
0.0
  0
LINE
  5
124
330
1F
100
AcDbEntity
  8
0
  6
Continuous
 62
     7
100
AcDbLine
 10
191.4323653482757
 20
101.4654297688405
 30
0.0
 11
191.4323653482757
 21
101.5654297688405
 31
0.0
  0
LINE
  5
125
330
1F
100
AcDbEntity
  8
0
  6
Continuous
 62
     7
100
AcDbLine
 10
191.4323653479619
 20
98.9654297691546
 30
0.0
 11
196.732365348276
 21
98.96542976915522
 31
0.0
  0
LINE
  5
126
330
1F
100
AcDbEntity
  8
0
  6
Continuous
 62
     7
100
AcDbLine
 10
191.4323653479619
 20
98.9654297691546
 30
0.0
 11
190.732365348276
 21
98.2654297688404
 31
0.0
  0
LINE
  5
127
330
1F
100
AcDbEntity
  8
0
  6
Continuous
 62
     7
100
AcDbLine
 10
191.4323653479619
 20
98.9654297691546
 30
0.0
 11
191.4323653479619
 21
99.06542976852641
 31
0.0
  0
LINE
  5
128
330
1F
100
AcDbEntity
  8
0
  6
Continuous
 62
     7
100
AcDbLine
 10
190.732365348276
 20
98.2654297688404
 30
0.0
 11
196.732365348276
 21
98.265429768527
 31
0.0
  0
LINE
  5
129
330
1F
100
AcDbEntity
  8
0
  6
Continuous
 62
     7
100
AcDbLine
 10
190.7323653482758
 20
100.7654297688404
 30
0.0
 11
196.7323653482752
 21
100.7654297682129
 31
0.0
  0
LINE
  5
12A
330
1F
100
AcDbEntity
  8
0
  6
Continuous
 62
     7
100
AcDbLine
 10
190.7323653482758
 20
100.7654297688404
 30
0.0
 11
190.73236534859
 21
99.76542976915452
 31
0.0
  0
LINE
  5
12B
330
1F
100
AcDbEntity
  8
0
  6
Continuous
 62
     7
100
AcDbLine
 10
196.7323653482749
 20
102.2654297694693
 30
0.0
 11
190.7323653485896
 21
102.2654297691545
 31
0.0
  0
LINE
  5
12C
330
1F
100
AcDbEntity
  8
0
  6
Continuous
 62
     7
100
AcDbLine
 10
196.7323653482753
 20
99.76542976946932
 30
0.0
 11
190.73236534859
 21
99.76542976915452
 31
0.0
  0
LINE
  5
12D
330
1F
100
AcDbEntity
  8
0
  6
Continuous
 62
     7
100
AcDbLine
 10
213.7323653482755
 20
103.265429768843
 30
0.0
 11
227.7323653482755
 21
103.2654297685305
 31
0.0
  0
LINE
  5
12E
330
1F
100
AcDbEntity
  8
0
  6
Continuous
 62
     7
100
AcDbLine
 10
227.7323653482762
 20
102.2654297694728
 30
0.0
 11
213.7323653482756
 21
102.265429768843
 31
0.0
  0
LINE
  5
12F
330
1F
100
AcDbEntity
  8
0
  6
Continuous
 62
     7
100
AcDbLine
 10
227.732365348276
 20
98.96542976915872
 30
0.0
 11
217.4973394522642
 21
98.96542976884352
 31
0.0
  0
LINE
  5
130
330
1F
100
AcDbEntity
  8
0
  6
Continuous
 62
     7
100
AcDbLine
 10
218.4680737083249
 20
98.26542976884362
 30
0.0
 11
227.732365348276
 21
98.26542976853052
 31
0.0
  0
LINE
  5
131
330
1F
100
AcDbEntity
  8
0
  6
Continuous
 62
     7
100
AcDbLine
 10
217.3586631299697
 20
99.06542976884352
 30
0.0
 11
227.732365348276
 21
99.06542976884462
 31
0.0
  0
LINE
  5
132
330
1F
100
AcDbEntity
  8
0
  6
Continuous
 62
     7
100
AcDbLine
 10
227.7323653482749
 20
107.2654297688446
 30
0.0
 11
213.7323653482749
 21
107.265429768843
 31
0.0
  0
LINE
  5
133
330
1F
100
AcDbEntity
  8
0
  6
Continuous
 62
     7
100
AcDbLine
 10
227.7323653482758
 20
104.7654297694728
 30
0.0
 11
213.7323653482753
 21
104.765429768843
 31
0.0
  0
LINE
  5
134
330
1F
100
AcDbEntity
  8
0
  6
Continuous
 62
     7
100
AcDbLine
 10
213.7323653482752
 20
105.765429768843
 30
0.0
 11
227.7323653482752
 21
105.7654297688446
 31
0.0
  0
LINE
  5
135
330
1F
100
AcDbEntity
  8
0
  6
Continuous
 62
     7
100
AcDbLine
 10
213.7323653482756
 20
101.5654297688431
 30
0.0
 11
227.7323653482756
 21
101.5654297685305
 31
0.0
  0
LINE
  5
136
330
1F
100
AcDbEntity
  8
0
  6
Continuous
 62
     7
100
AcDbLine
 10
214.1526517852425
 20
100.7654297688431
 30
0.0
 11
227.7323653482764
 21
100.7654297682164
 31
0.0
  0
LINE
  5
137
330
1F
100
AcDbEntity
  8
0
  6
Continuous
 62
     7
100
AcDbLine
 10
213.7323653482756
 20
101.465429768843
 30
0.0
 11
213.7323653482756
 21
101.5654297688431
 31
0.0
  0
LINE
  5
138
330
1F
100
AcDbEntity
  8
0
  6
Continuous
 62
     7
100
AcDbLine
 10
190.8323653482775
 20
86.0154297688404
 30
0.0
 11
196.5533827360222
 21
86.015429768841
 31
0.0
  0
LINE
  5
139
330
1F
100
AcDbEntity
  8
0
  6
Continuous
 62
     7
100
AcDbLine
 10
190.7323653482774
 20
86.0154297688404
 30
0.0
 11
190.8323653482775
 21
86.0154297688404
 31
0.0
  0
LINE
  5
13A
330
1F
100
AcDbEntity
  8
0
  6
Continuous
 62
     7
100
AcDbLine
 10
190.732365348276
 20
98.2654297688404
 30
0.0
 11
190.7323653482774
 21
86.0154297688404
 31
0.0
  0
LINE
  5
13B
330
1F
100
AcDbEntity
  8
0
  6
Continuous
 62
     7
100
AcDbLine
 10
212.2439916896153
 20
86.0154387803024
 30
0.0
 11
196.7323653482774
 21
86.01542976884112
 31
0.0
  0
LINE
  5
13C
330
1F
100
AcDbEntity
  8
0
  6
Continuous
 62
     7
100
AcDbLine
 10
213.257867131212
 20
86.01542976884302
 30
0.0
 11
212.2439916896153
 21
86.0154387803024
 31
0.0
  0
LINE
  5
13D
330
1F
100
AcDbEntity
  8
0
  6
Continuous
 62
     7
100
AcDbLine
 10
190.8323653482775
 20
86.0154297688404
 30
0.0
 11
190.832365348278
 21
80.51542976884052
 31
0.0
  0
LINE
  5
13E
330
1F
100
AcDbEntity
  8
0
  6
Continuous
 62
     7
100
AcDbLine
 10
196.5533827360229
 20
80.51542976884112
 30
0.0
 11
213.0972392606982
 21
80.5154297688429
 31
0.0
  0
LINE
  5
13F
330
1F
100
AcDbEntity
  8
0
  6
Continuous
 62
     7
100
AcDbLine
 10
196.5533827360229
 20
80.51542976884112
 30
0.0
 11
190.832365348278
 21
80.51542976884052
 31
0.0
  0
LINE
  5
140
330
1F
100
AcDbEntity
  8
0
  6
Continuous
 62
     7
100
AcDbLine
 10
233.0323653485898
 20
101.4654297691593
 30
0.0
 11
227.7323653482756
 21
101.4654297691587
 31
0.0
  0
LINE
  5
141
330
1F
100
AcDbEntity
  8
0
  6
Continuous
 62
     7
100
AcDbLine
 10
233.032365348276
 20
98.9654297688452
 30
0.0
 11
227.732365348276
 21
98.96542976915872
 31
0.0
  0
LINE
  5
142
330
1F
100
AcDbEntity
  8
0
  6
Continuous
 62
     7
100
AcDbLine
 10
233.032365348276
 20
99.06542976884522
 30
0.0
 11
233.032365348276
 21
98.9654297688452
 31
0.0
  0
LINE
  5
143
330
1F
100
AcDbEntity
  8
0
  6
Continuous
 62
     7
100
AcDbLine
 10
227.732365348276
 20
99.06542976884462
 30
0.0
 11
233.032365348276
 21
99.06542976884522
 31
0.0
  0
LINE
  5
144
330
1F
100
AcDbEntity
  8
0
  6
Continuous
 62
     7
100
AcDbLine
 10
227.732365348276
 20
98.26542976853052
 30
0.0
 11
233.7323653482761
 21
98.26542976884532
 31
0.0
  0
LINE
  5
145
330
1F
100
AcDbEntity
  8
0
  6
Continuous
 62
     7
100
AcDbLine
 10
233.7323653482772
 20
87.25829359202352
 30
0.0
 11
233.7323653482761
 21
98.26542976884532
 31
0.0
  0
LINE
  5
146
330
1F
100
AcDbEntity
  8
0
  6
Continuous
 62
     7
100
AcDbLine
 10
233.032365348276
 20
98.9654297688452
 30
0.0
 11
233.7323653482761
 21
98.26542976884532
 31
0.0
  0
LINE
  5
147
330
1F
100
AcDbEntity
  8
0
  6
Continuous
 62
     7
100
AcDbLine
 10
233.032365348276
 20
99.06542976884522
 30
0.0
 11
233.7323653482758
 21
99.76542976884532
 31
0.0
  0
LINE
  5
148
330
1F
100
AcDbEntity
  8
1
  6
DOT_CENTER
 62
     2
100
AcDbLine
 10
212.2323653482764
 20
99.12542976884241
 30
0.0
 11
212.2323653482764
 21
87.9054297688432
 31
0.0
  0
LINE
  5
149
330
1F
100
AcDbEntity
  8
1
  6
DOT_CENTER
 62
     2
100
AcDbLine
 10
217.842365348276
 20
93.51542976884282
 30
0.0
 11
206.6223653482767
 21
93.51542976884282
 31
0.0
  0
LINE
  5
14A
330
1F
100
AcDbEntity
  8
0
  6
Continuous
 62
     7
100
AcDbLine
 10
213.0972392606982
 20
80.5154297688429
 30
0.0
 11
212.5102922612596
 21
78.89499469441962
 31
0.0
  0
LINE
  5
14B
330
1F
100
AcDbEntity
  8
0
  6
Continuous
 62
     7
100
AcDbLine
 10
209.0191267735515
 20
77.65426915829751
 30
0.0
 11
208.7618671693062
 21
77.80859833903021
 31
0.0
  0
LINE
  5
14C
330
1F
100
AcDbEntity
  8
0
  6
Continuous
 62
     7
100
AcDbLine
 10
203.4613642661288
 20
74.80181066357711
 30
0.0
 11
203.4649296774726
 21
72.5018134270929
 31
0.0
  0
LINE
  5
14D
330
1F
100
AcDbEntity
  8
0
  6
Continuous
 62
     7
100
AcDbLine
 10
205.9649266736562
 20
72.5056888742068
 30
0.0
 11
205.962629336328
 21
73.9876692114416
 31
0.0
  0
LINE
  5
14E
330
1F
100
AcDbEntity
  8
0
  6
Continuous
 62
     7
100
AcDbLine
 10
213.7949786244409
 20
75.51679328815622
 30
0.0
 11
221.9794973797646
 21
84.06838888359762
 31
0.0
  0
LINE
  5
14F
330
1F
100
AcDbEntity
  8
0
  6
Continuous
 62
     7
100
AcDbLine
 10
214.3717803496865
 20
84.03416499768942
 30
0.0
 11
213.0972392606982
 21
80.5154297688429
 31
0.0
  0
LINE
  5
150
330
1F
100
AcDbEntity
  8
0
  6
Continuous
 62
     7
100
AcDbLine
 10
227.2188447757349
 20
71.03863448571941
 30
0.0
 11
207.4672501396317
 21
71.0080159447664
 31
0.0
  0
LINE
  5
151
330
1F
100
AcDbEntity
  8
0
  6
Continuous
 62
     7
100
AcDbLine
 10
243.9257443755047
 20
69.71299971178031
 30
0.0
 11
243.9788677008787
 21
69.6282771510232
 31
0.0
  0
LINE
  5
152
330
1F
100
AcDbEntity
  8
0
  6
Continuous
 62
     7
100
AcDbLine
 10
240.2672107295138
 20
71.0588618108895
 30
0.0
 11
238.7672125317976
 21
71.0565365426216
 31
0.0
  0
LINE
  5
153
330
1F
100
AcDbEntity
  8
0
  6
Continuous
 62
     7
100
AcDbLine
 10
237.7656635544803
 20
72.05498516224831
 30
0.0
 11
237.7548123025638
 21
79.05497675155281
 31
0.0
  0
LINE
  5
154
330
1F
100
AcDbEntity
  8
0
  6
Continuous
 62
     7
100
AcDbLine
 10
243.1173011171976
 20
69.16845948584451
 30
0.0
 11
243.0764858858763
 21
69.25975087038982
 31
0.0
  0
LINE
  5
155
330
1F
100
AcDbEntity
  8
0
  6
Continuous
 62
     7
100
AcDbLine
 10
242.1724122747268
 20
68.929106953085
 30
0.0
 11
242.2001249899445
 21
68.8330236277091
 31
0.0
  0
LINE
  5
156
330
1F
100
AcDbEntity
  8
0
  6
Continuous
 62
     7
100
AcDbLine
 10
241.2311203065285
 20
68.72750356761422
 30
0.0
 11
241.2451911091638
 21
68.62849845404311
 31
0.0
  0
LINE
  5
157
330
1F
100
AcDbEntity
  8
0
  6
Continuous
 62
     7
100
AcDbLine
 10
240.2710861766235
 20
68.55886481470792
 30
0.0
 11
240.2709311587391
 21
68.65886469455522
 31
0.0
  0
LINE
  5
158
330
1F
100
AcDbEntity
  8
0
  6
Continuous
 62
     7
100
AcDbLine
 10
241.6843613719937
 20
82.310290611804
 30
0.0
 11
241.7050008857225
 21
82.4081374843807
 31
0.0
  0
LINE
  5
159
330
1F
100
AcDbEntity
  8
0
  6
Continuous
 62
     7
100
AcDbLine
 10
242.6441762100072
 20
82.1404081927809
 30
0.0
 11
242.6101199059316
 21
82.04638602436982
 31
0.0
  0
LINE
  5
15A
330
1F
100
AcDbEntity
  8
0
  6
Continuous
 62
     7
100
AcDbLine
 10
243.4901406016645
 20
81.65620905233102
 30
0.0
 11
243.5369508288668
 21
81.7445764820168
 31
0.0
  0
LINE
  5
15B
330
1F
100
AcDbEntity
  8
0
  6
Continuous
 62
     7
100
AcDbLine
 10
244.3072948573588
 20
81.14735404662851
 30
0.0
 11
244.3659478998609
 21
81.22834676608672
 31
0.0
  0
LINE
  5
15C
330
1F
100
AcDbEntity
  8
0
  6
Continuous
 62
     7
100
AcDbLine
 10
240.7377048354034
 20
82.54255331069292
 30
0.0
 11
240.730883836679
 21
82.44278621202612
 31
0.0
  0
LINE
  5
15D
330
1F
100
AcDbEntity
  8
0
  6
Continuous
 62
     7
100
AcDbLine
 10
240.2495386906752
 20
82.4588481134695
 30
0.0
 11
240.2493836727906
 21
82.55884799331672
 31
0.0
  0
LINE
  5
15E
330
1F
100
AcDbEntity
  8
0
  6
Continuous
 62
     7
100
AcDbLine
 10
238.7532609221905
 20
80.05652572886991
 30
0.0
 11
240.2532591199068
 21
80.05885099713781
 31
0.0
  0
LINE
  5
15F
330
1F
100
AcDbEntity
  8
0
  6
Continuous
 62
     7
100
AcDbLine
 10
216.6190712396458
 20
99.5987521688662
 30
0.0
 11
240.2493836727906
 21
82.55884799331672
 31
0.0
  0
LINE
  5
160
330
1F
100
AcDbEntity
  8
0
  6
Continuous
 62
     7
100
AcDbLine
 10
245.3950852369907
 20
70.94980961856511
 30
0.0
 11
245.4695033574587
 21
70.8830118390657
 31
0.0
  0
LINE
  5
161
330
1F
100
AcDbEntity
  8
0
  6
Continuous
 62
     7
100
AcDbLine
 10
245.0456776949263
 20
80.5297252911344
 30
0.0
 11
245.1150319379728
 21
80.60176686920862
 31
0.0
  0
LINE
  5
162
330
1F
100
AcDbEntity
  8
0
  6
Continuous
 62
     7
100
AcDbLine
 10
244.7036578931285
 20
70.28003150412171
 30
0.0
 11
244.7680553274533
 21
70.2035267954276
 31
0.0
  0
LINE
  5
163
330
1F
100
AcDbEntity
  8
0
  6
Continuous
 62
     7
100
AcDbLine
 10
245.6909173323321
 20
79.81534422703182
 30
0.0
 11
245.7696228744716
 21
79.87703245635102
 31
0.0
  0
LINE
  5
164
330
1F
100
AcDbEntity
  8
0
  6
Continuous
 62
     7
100
AcDbLine
 10
246.0695589028752
 20
71.6535068784665
 30
0.0
 11
245.9865685603299
 21
71.70929758597431
 31
0.0
  0
LINE
  5
165
330
1F
100
AcDbEntity
  8
0
  6
Continuous
 62
     7
100
AcDbLine
 10
246.4665953130597
 20
72.5437128369682
 30
0.0
 11
246.5565425650648
 21
72.5000151041125
 31
0.0
  0
LINE
  5
166
330
1F
100
AcDbEntity
  8
0
  6
Continuous
 62
     7
100
AcDbLine
 10
246.2548577384911
 20
79.03225493000242
 30
0.0
 11
246.316979841364
 21
79.068249658487
 31
0.0
  0
LINE
  5
167
330
1F
100
AcDbEntity
  8
0
  6
Continuous
 62
     7
100
AcDbLine
 10
246.230454913983
 20
79.01811546913741
 30
0.0
 11
246.2548577384911
 21
79.03225493000242
 31
0.0
  0
LINE
  5
168
330
1F
100
AcDbEntity
  8
0
  6
Continuous
 62
     7
100
AcDbLine
 10
246.2548577384911
 20
79.03225493000242
 30
0.0
 11
246.2549457213835
 21
78.9754983905559
 31
0.0
  0
LINE
  5
169
330
1F
100
AcDbEntity
  8
0
  6
Continuous
 62
     7
100
AcDbLine
 10
246.7464491578987
 20
78.19116051280052
 30
0.0
 11
246.6537889545674
 21
78.1535561683893
 31
0.0
  0
LINE
  5
16A
330
1F
100
AcDbEntity
  8
0
  6
Continuous
 62
     7
100
AcDbLine
 10
246.8258223204607
 20
73.4368144278197
 30
0.0
 11
246.9209757609787
 21
73.4060601962807
 31
0.0
  0
LINE
  5
16B
330
1F
100
AcDbEntity
  8
0
  6
Continuous
 62
     7
100
AcDbLine
 10
246.9526797385205
 20
77.2384939881547
 30
0.0
 11
247.0496716923439
 21
77.26283656183791
 31
0.0
  0
LINE
  5
16C
330
1F
100
AcDbEntity
  8
0
  6
Continuous
 62
     7
100
AcDbLine
 10
247.155765212995
 20
74.354007017863
 30
0.0
 11
247.057257637448
 21
74.3712191519508
 31
0.0
  0
LINE
  5
16D
330
1F
100
AcDbEntity
  8
0
  6
Continuous
 62
     7
100
AcDbLine
 10
247.1563966388308
 20
75.328739884276
 30
0.0
 11
247.2563410114992
 21
75.32540486225092
 31
0.0
  0
LINE
  5
16E
330
1F
100
AcDbEntity
  8
0
  6
Continuous
 62
     7
100
AcDbLine
 10
247.2207455629767
 20
76.3013465753519
 30
0.0
 11
247.1213096967157
 21
76.2907395729042
 31
0.0
  0
LINE
  5
16F
330
1F
100
AcDbEntity
  8
0
  6
Continuous
 62
     7
100
AcDbLine
 10
101.653239622051
 20
79.31783056573191
 30
0.0
 11
102.7502051335116
 21
79.31856095685872
 31
0.0
  0
LINE
  5
170
330
1F
100
AcDbEntity
  8
0
  6
Continuous
 62
     7
100
AcDbLine
 10
103.8471706449719
 20
77.4198010674008
 30
0.0
 11
103.847170644972
 21
75.519552417284
 31
0.0
  0
LINE
  5
171
330
1F
100
AcDbEntity
  8
0
  6
Continuous
 62
     7
100
AcDbLine
 10
98.01593292615584
 20
79.31856095685832
 30
0.0
 11
99.51704362604957
 21
79.3185609568584
 31
0.0
  0
LINE
  5
172
330
1F
100
AcDbEntity
  8
0
  6
Continuous
 62
     7
100
AcDbLine
 10
96.45708719934393
 20
79.3185609568582
 30
0.0
 11
96.97670244161455
 21
79.317830565731
 31
0.0
  0
LINE
  5
173
330
1F
100
AcDbEntity
  8
0
  6
Continuous
 62
     7
100
AcDbLine
 10
96.83236487431796
 20
75.56955263803992
 30
0.0
 11
96.83236487431807
 21
73.86922495976542
 31
0.0
  0
LINE
  5
174
330
1F
100
AcDbEntity
  8
0
  6
Continuous
 62
     7
100
AcDbLine
 10
99.05516341069753
 20
79.21792917269552
 30
0.0
 11
98.93969335685946
 21
79.21792917269472
 31
0.0
  0
LINE
  5
175
330
1F
100
AcDbEntity
  8
0
  6
Continuous
 62
     7
100
AcDbLine
 10
97.20764254929142
 20
71.8178395771907
 30
0.0
 11
96.68802730702109
 21
71.81783957719121
 31
0.0
  0
LINE
  5
176
330
1F
100
AcDbEntity
  8
0
  6
Continuous
 62
     7
100
AcDbLine
 10
95.93236487431804
 20
74.0110678362329
 30
0.0
 11
95.93236487431793
 21
71.81783957719041
 31
0.0
  0
LINE
  5
177
330
1F
100
AcDbEntity
  8
0
  6
Continuous
 62
     7
100
AcDbLine
 10
92.01149012658456
 20
71.8185699683185
 30
0.0
 11
90.91452461512486
 21
71.81783957719121
 31
0.0
  0
LINE
  5
178
330
1F
100
AcDbEntity
  8
0
  6
Continuous
 62
     7
100
AcDbLine
 10
90.39490937285424
 20
71.81783957719001
 30
0.0
 11
89.81755910366402
 21
71.8178395771899
 31
0.0
  0
LINE
  5
179
330
1F
100
AcDbEntity
  8
0
  6
Continuous
 62
     7
100
AcDbLine
 10
89.81755910366402
 20
72.81934234492242
 30
0.0
 11
89.81755910366402
 21
71.8178395771899
 31
0.0
  0
LINE
  5
17A
330
1F
100
AcDbEntity
  8
0
  6
Continuous
 62
     7
100
AcDbLine
 10
89.31755910366346
 20
70.94980961856511
 30
0.0
 11
89.31755910366346
 21
70.88301183906042
 31
0.0
  0
LINE
  5
17B
330
1F
100
AcDbEntity
  8
0
  6
Continuous
 62
     7
100
AcDbLine
 10
89.81755910366402
 20
75.6201723840562
 30
0.0
 11
89.81755910366437
 21
73.7191632359292
 31
0.0
  0
LINE
  5
17C
330
1F
100
AcDbEntity
  8
0
  6
Continuous
 62
     7
100
AcDbLine
 10
89.31755910366346
 20
73.4060601962807
 30
0.0
 11
89.31755910366346
 21
74.354007017863
 31
0.0
  0
LINE
  5
17D
330
1F
100
AcDbEntity
  8
0
  6
Continuous
 62
     7
100
AcDbLine
 10
89.31755910366346
 20
74.354007017863
 30
0.0
 11
89.31755910366346
 21
74.37121915195091
 31
0.0
  0
LINE
  5
17E
330
1F
100
AcDbEntity
  8
0
  6
Continuous
 62
     7
100
AcDbLine
 10
89.31755910366346
 20
72.5437128369682
 30
0.0
 11
89.31755910366346
 21
72.5000151041125
 31
0.0
  0
LINE
  5
17F
330
1F
100
AcDbEntity
  8
0
  6
Continuous
 62
     7
100
AcDbLine
 10
95.93236487431793
 20
71.81783957719041
 30
0.0
 11
94.14768612258646
 21
71.81783957719112
 31
0.0
  0
LINE
  5
180
330
1F
100
AcDbEntity
  8
0
  6
Continuous
 62
     7
100
AcDbLine
 10
93.62807088031579
 20
71.8185699683185
 30
0.0
 11
92.53110536885524
 21
71.81783957719112
 31
0.0
  0
LINE
  5
181
330
1F
100
AcDbEntity
  8
0
  6
Continuous
 62
     7
100
AcDbLine
 10
89.81755910366414
 20
78.4192712310391
 30
0.0
 11
89.81755910366402
 21
76.51944963208932
 31
0.0
  0
LINE
  5
182
330
1F
100
AcDbEntity
  8
0
  6
Continuous
 62
     7
100
AcDbLine
 10
67.83236487431796
 20
68.55266409932672
 30
0.0
 11
125.832364874318
 21
68.55266409932672
 31
0.0
  0
LINE
  5
183
330
1F
100
AcDbEntity
  8
0
  6
Continuous
 62
     7
100
AcDbLine
 10
89.31755910366346
 20
70.88301183906042
 30
0.0
 11
104.3471706449725
 21
70.88301183906042
 31
0.0
  0
LINE
  5
184
330
1F
100
AcDbEntity
  8
0
  6
Continuous
 62
     7
100
AcDbLine
 10
89.31755910366346
 20
79.0181154691375
 30
0.0
 11
89.31755910366346
 21
79.0682496584872
 31
0.0
  0
LINE
  5
185
330
1F
100
AcDbEntity
  8
0
  6
Continuous
 62
     7
100
AcDbLine
 10
89.31755910366346
 20
80.52972529113431
 30
0.0
 11
89.31755910366346
 21
80.60154195057602
 31
0.0
  0
LINE
  5
186
330
1F
100
AcDbEntity
  8
0
  6
Continuous
 62
     7
100
AcDbLine
 10
87.15153594677392
 20
78.9754983905559
 30
0.0
 11
87.05828484159164
 21
79.01811546913741
 31
0.0
  0
LINE
  5
187
330
1F
100
AcDbEntity
  8
0
  6
Continuous
 62
     7
100
AcDbLine
 10
87.05828484159164
 20
79.01811546913741
 30
0.0
 11
87.02745630034084
 21
79.03225493000242
 31
0.0
  0
LINE
  5
188
330
1F
100
AcDbEntity
  8
0
  6
Continuous
 62
     7
100
AcDbLine
 10
103.8471706449721
 20
79.31856095685912
 30
0.0
 11
103.8471706449718
 21
78.31866311118132
 31
0.0
  0
LINE
  5
189
330
1F
100
AcDbEntity
  8
0
  6
Continuous
 62
     7
100
AcDbLine
 10
104.3471706449725
 20
73.4060601962807
 30
0.0
 11
104.3471706449725
 21
74.354007017863
 31
0.0
  0
LINE
  5
18A
330
1F
100
AcDbEntity
  8
0
  6
Continuous
 62
     7
100
AcDbLine
 10
104.3471706449725
 20
71.6535068784665
 30
0.0
 11
104.3471706449725
 21
72.5000151041125
 31
0.0
  0
LINE
  5
18B
330
1F
100
AcDbEntity
  8
0
  6
Continuous
 62
     7
100
AcDbLine
 10
106.513193801862
 20
78.9754983905559
 30
0.0
 11
106.6064449070441
 21
79.01811546913741
 31
0.0
  0
LINE
  5
18C
330
1F
100
AcDbEntity
  8
0
  6
Continuous
 62
     7
100
AcDbLine
 10
104.3471706449725
 20
79.0682496584872
 30
0.0
 11
104.3471706449725
 21
79.0181154691375
 31
0.0
  0
LINE
  5
18D
330
1F
100
AcDbEntity
  8
0
  6
Continuous
 62
     7
100
AcDbLine
 10
104.3471706449725
 20
70.88301183906042
 30
0.0
 11
104.3471706449725
 21
70.94980961856511
 31
0.0
  0
LINE
  5
18E
330
1F
100
AcDbEntity
  8
0
  6
Continuous
 62
     7
100
AcDbLine
 10
104.3471706449725
 20
77.26283656183791
 30
0.0
 11
104.3471706449725
 21
77.2384939881547
 31
0.0
  0
LINE
  5
18F
330
1F
100
AcDbEntity
  8
0
  6
Continuous
 62
     7
100
AcDbLine
 10
104.3471706449725
 20
74.37121915195091
 30
0.0
 11
104.3471706449725
 21
74.354007017863
 31
0.0
  0
LINE
  5
190
330
1F
100
AcDbEntity
  8
0
  6
Continuous
 62
     7
100
AcDbLine
 10
106.6064449070441
 20
79.01811546913741
 30
0.0
 11
106.637273448295
 21
79.03225493000242
 31
0.0
  0
LINE
  5
191
330
1F
100
AcDbEntity
  8
0
  6
Continuous
 62
     7
100
AcDbLine
 10
104.3471706449725
 20
72.5000151041125
 30
0.0
 11
104.3471706449725
 21
72.5437128369682
 31
0.0
  0
LINE
  5
192
330
1F
100
AcDbEntity
  8
0
  6
Continuous
 62
     7
100
AcDbLine
 10
103.847170644972
 20
74.62007761743492
 30
0.0
 11
103.8471706449726
 21
72.71860100964041
 31
0.0
  0
LINE
  5
193
330
1F
100
AcDbEntity
  8
0
  6
Continuous
 62
     7
100
AcDbLine
 10
104.3471706449725
 20
80.60154195057602
 30
0.0
 11
89.31755910366346
 21
80.60154195057602
 31
0.0
  0
LINE
  5
194
330
1F
100
AcDbEntity
  8
0
  6
Continuous
 62
     7
100
AcDbLine
 10
89.31755910366346
 20
79.0682496584872
 30
0.0
 11
89.31755910366346
 21
79.87703245635102
 31
0.0
  0
LINE
  5
195
330
1F
100
AcDbEntity
  8
0
  6
Continuous
 62
     7
100
AcDbLine
 10
104.3471706449725
 20
80.60154195057602
 30
0.0
 11
104.3471706449725
 21
80.52972529113431
 31
0.0
  0
LINE
  5
196
330
1F
100
AcDbEntity
  8
0
  6
Continuous
 62
     7
100
AcDbLine
 10
104.3471706449725
 20
79.0682496584872
 30
0.0
 11
104.3471706449725
 21
79.87703245635102
 31
0.0
  0
LINE
  5
197
330
1F
100
AcDbEntity
  8
0
  6
Continuous
 62
     7
100
AcDbLine
 10
89.81755910366323
 20
79.31783056573131
 30
0.0
 11
93.91674601490999
 21
79.31783056573151
 31
0.0
  0
LINE
  5
198
330
1F
100
AcDbEntity
  8
0
  6
Continuous
 62
     7
100
AcDbLine
 10
100.03665886832
 20
79.31783056573151
 30
0.0
 11
101.1336243797803
 21
79.31856095685892
 31
0.0
  0
LINE
  5
199
330
1F
100
AcDbEntity
  8
0
  6
Continuous
 62
     7
100
AcDbLine
 10
103.2698203757817
 20
79.31783056573231
 30
0.0
 11
103.8471706449721
 21
79.31856095685912
 31
0.0
  0
LINE
  5
19A
330
1F
100
AcDbEntity
  8
0
  6
Continuous
 62
     7
100
AcDbLine
 10
89.31755910366346
 20
77.26283656183791
 30
0.0
 11
89.31755910366346
 21
78.19116051280052
 31
0.0
  0
LINE
  5
19B
330
1F
100
AcDbEntity
  8
0
  6
Continuous
 62
     7
100
AcDbLine
 10
89.31755910366346
 20
77.2384939881547
 30
0.0
 11
89.31755910366346
 21
77.26283656183791
 31
0.0
  0
LINE
  5
19C
330
1F
100
AcDbEntity
  8
0
  6
Continuous
 62
     7
100
AcDbLine
 10
104.3471706449725
 20
77.26283656183791
 30
0.0
 11
104.3471706449725
 21
78.19116051280052
 31
0.0
  0
LINE
  5
19D
330
1F
100
AcDbEntity
  8
0
  6
Continuous
 62
     7
100
AcDbLine
 10
93.39713077263937
 20
78.4185941609302
 30
0.0
 11
94.89824147253259
 21
78.4185941609304
 31
0.0
  0
LINE
  5
19E
330
1F
100
AcDbEntity
  8
0
  6
Continuous
 62
     7
100
AcDbLine
 10
104.3471706449725
 20
75.32540486225092
 30
0.0
 11
104.3471706449725
 21
76.30134657535201
 31
0.0
  0
LINE
  5
19F
330
1F
100
AcDbEntity
  8
0
  6
Continuous
 62
     7
100
AcDbLine
 10
89.31755910366346
 20
75.32540486225092
 30
0.0
 11
89.31755910366346
 21
76.30134657535201
 31
0.0
  0
LINE
  5
1A0
330
1F
100
AcDbEntity
  8
0
  6
Continuous
 62
     7
100
AcDbLine
 10
103.8471706449719
 20
71.8185699683202
 30
0.0
 11
99.80571876064496
 21
71.8185699683187
 31
0.0
  0
LINE
  5
1A1
330
1F
100
AcDbEntity
  8
0
  6
Continuous
 62
     7
100
AcDbLine
 10
98.76648827610344
 20
71.81783957719081
 30
0.0
 11
98.24687303383317
 21
71.8185699683187
 31
0.0
  0
LINE
  5
1A2
330
1F
100
AcDbEntity
  8
0
  6
Continuous
 62
     7
100
AcDbLine
 10
59.33236487431797
 20
68.50801894858502
 30
0.0
 11
59.33236487431797
 21
68.55886481470792
 31
0.0
  0
LINE
  5
1A3
330
1F
100
AcDbEntity
  8
0
  6
Continuous
 62
     7
100
AcDbLine
 10
64.83236487431796
 20
101.0154297688428
 30
0.0
 11
64.83236487431796
 21
99.5987521688662
 31
0.0
  0
LINE
  5
1A4
330
1F
100
AcDbEntity
  8
0
  6
Continuous
 62
     7
100
AcDbLine
 10
64.83236487431796
 20
68.5080189485851
 30
0.0
 11
64.83236487431796
 21
68.5480135627915
 31
0.0
  0
LINE
  5
1A5
330
1F
100
AcDbEntity
  8
0
  6
Continuous
 62
     7
100
AcDbLine
 10
59.33236487431797
 20
72.5437128369682
 30
0.0
 11
59.33236487431797
 21
73.4060601962807
 31
0.0
  0
LINE
  5
1A6
330
1F
100
AcDbEntity
  8
0
  6
Continuous
 62
     7
100
AcDbLine
 10
59.33236487431797
 20
73.4060601962807
 30
0.0
 11
59.33236487431797
 21
74.354007017863
 31
0.0
  0
LINE
  5
1A7
330
1F
100
AcDbEntity
  8
0
  6
Continuous
 62
     7
100
AcDbLine
 10
59.33236487431797
 20
74.354007017863
 30
0.0
 11
59.33236487431797
 21
74.3712191519508
 31
0.0
  0
LINE
  5
1A8
330
1F
100
AcDbEntity
  8
0
  6
Continuous
 62
     7
100
AcDbLine
 10
59.33236487431797
 20
101.0154297688428
 30
0.0
 11
64.83236487431796
 21
101.0154297688428
 31
0.0
  0
LINE
  5
1A9
330
1F
100
AcDbEntity
  8
0
  6
Continuous
 62
     7
100
AcDbLine
 10
59.33236487431797
 20
81.22834676608672
 30
0.0
 11
59.33236487431797
 21
81.65620905233102
 31
0.0
  0
LINE
  5
1AA
330
1F
100
AcDbEntity
  8
0
  6
Continuous
 62
     7
100
AcDbLine
 10
59.33236487431797
 20
81.65620905233102
 30
0.0
 11
59.33236487431797
 21
81.7445764820168
 31
0.0
  0
LINE
  5
1AB
330
1F
100
AcDbEntity
  8
0
  6
Continuous
 62
     7
100
AcDbLine
 10
59.33236487431797
 20
80.60176686920862
 30
0.0
 11
59.33236487431797
 21
81.22834676608672
 31
0.0
  0
LINE
  5
1AC
330
1F
100
AcDbEntity
  8
0
  6
Continuous
 62
     7
100
AcDbLine
 10
59.33236487431797
 20
80.52972529113431
 30
0.0
 11
59.33236487431797
 21
80.60176686920862
 31
0.0
  0
LINE
  5
1AD
330
1F
100
AcDbEntity
  8
0
  6
Continuous
 62
     7
100
AcDbLine
 10
64.83236487431796
 20
68.5080189485851
 30
0.0
 11
59.33236487431797
 21
68.50801894858502
 31
0.0
  0
LINE
  5
1AE
330
1F
100
AcDbEntity
  8
0
  6
Continuous
 62
     7
100
AcDbLine
 10
59.33236487431797
 20
101.0154297688428
 30
0.0
 11
59.33236487431797
 21
99.59875216886611
 31
0.0
  0
LINE
  5
1AF
330
1F
100
AcDbEntity
  8
0
  6
Continuous
 62
     7
100
AcDbLine
 10
59.33236487431797
 20
82.14040819278081
 30
0.0
 11
59.33236487431797
 21
82.310290611804
 31
0.0
  0
LINE
  5
1B0
330
1F
100
AcDbEntity
  8
0
  6
Continuous
 62
     7
100
AcDbLine
 10
59.33236487431797
 20
82.310290611804
 30
0.0
 11
59.33236487431797
 21
82.40813748438062
 31
0.0
  0
LINE
  5
1B1
330
1F
100
AcDbEntity
  8
0
  6
Continuous
 62
     7
100
AcDbLine
 10
59.33236487431797
 20
81.7445764820168
 30
0.0
 11
59.33236487431797
 21
82.14040819278081
 31
0.0
  0
LINE
  5
1B2
330
1F
100
AcDbEntity
  8
0
  6
Continuous
 62
     7
100
AcDbLine
 10
59.33236487431797
 20
68.55886481470792
 30
0.0
 11
59.33236487431797
 21
68.628498454043
 31
0.0
  0
LINE
  5
1B3
330
1F
100
AcDbEntity
  8
0
  6
Continuous
 62
     7
100
AcDbLine
 10
59.33236487431797
 20
68.92910695308491
 30
0.0
 11
59.33236487431797
 21
68.8330236277091
 31
0.0
  0
LINE
  5
1B4
330
1F
100
AcDbEntity
  8
0
  6
Continuous
 62
     7
100
AcDbLine
 10
59.33236487431797
 20
82.40813748438062
 30
0.0
 11
59.33236487431797
 21
82.54255331069292
 31
0.0
  0
LINE
  5
1B5
330
1F
100
AcDbEntity
  8
0
  6
Continuous
 62
     7
100
AcDbLine
 10
59.33236487431797
 20
82.54255331069292
 30
0.0
 11
59.33236487431797
 21
82.55884799331672
 31
0.0
  0
LINE
  5
1B6
330
1F
100
AcDbEntity
  8
0
  6
Continuous
 62
     7
100
AcDbLine
 10
134.332364874318
 20
75.32540486225092
 30
0.0
 11
104.3471706449725
 21
75.32540486225092
 31
0.0
  0
LINE
  5
1B7
330
1F
100
AcDbEntity
  8
0
  6
Continuous
 62
     7
100
AcDbLine
 10
134.332364874318
 20
80.52972529113431
 30
0.0
 11
104.3471706449725
 21
80.52972529113431
 31
0.0
  0
LINE
  5
1B8
330
1F
100
AcDbEntity
  8
0
  6
Continuous
 62
     7
100
AcDbLine
 10
104.3471706449725
 20
76.30134657535201
 30
0.0
 11
134.332364874318
 21
76.30134657535201
 31
0.0
  0
LINE
  5
1B9
330
1F
100
AcDbEntity
  8
0
  6
Continuous
 62
     7
100
AcDbLine
 10
134.332364874318
 20
77.26283656183791
 30
0.0
 11
104.3471706449725
 21
77.26283656183791
 31
0.0
  0
LINE
  5
1BA
330
1F
100
AcDbEntity
  8
0
  6
Continuous
 62
     7
100
AcDbLine
 10
134.332364874318
 20
77.2384939881547
 30
0.0
 11
104.3471706449725
 21
77.2384939881547
 31
0.0
  0
LINE
  5
1BB
330
1F
100
AcDbEntity
  8
0
  6
Continuous
 62
     7
100
AcDbLine
 10
134.332364874318
 20
74.37121915195091
 30
0.0
 11
104.3471706449725
 21
74.37121915195091
 31
0.0
  0
LINE
  5
1BC
330
1F
100
AcDbEntity
  8
0
  6
Continuous
 62
     7
100
AcDbLine
 10
134.332364874318
 20
75.32540486225092
 30
0.0
 11
134.332364874318
 21
76.30134657535201
 31
0.0
  0
LINE
  5
1BD
330
1F
100
AcDbEntity
  8
0
  6
Continuous
 62
     7
100
AcDbLine
 10
129.9015359467739
 20
78.9754983905559
 30
0.0
 11
106.513193801862
 21
78.9754983905559
 31
0.0
  0
LINE
  5
1BE
330
1F
100
AcDbEntity
  8
0
  6
Continuous
 62
     7
100
AcDbLine
 10
134.332364874318
 20
77.26283656183791
 30
0.0
 11
134.332364874318
 21
78.19116051280052
 31
0.0
  0
LINE
  5
1BF
330
1F
100
AcDbEntity
  8
0
  6
Continuous
 62
     7
100
AcDbLine
 10
134.332364874318
 20
78.19116051280052
 30
0.0
 11
104.3471706449725
 21
78.19116051280052
 31
0.0
  0
LINE
  5
1C0
330
1F
100
AcDbEntity
  8
0
  6
Continuous
 62
     7
100
AcDbLine
 10
106.6064449070441
 20
79.01811546913741
 30
0.0
 11
104.3471706449725
 21
79.0181154691375
 31
0.0
  0
LINE
  5
1C1
330
1F
100
AcDbEntity
  8
0
  6
Continuous
 62
     7
100
AcDbLine
 10
129.777456300341
 20
79.03225493000242
 30
0.0
 11
129.8082848415919
 21
79.01811546913741
 31
0.0
  0
LINE
  5
1C2
330
1F
100
AcDbEntity
  8
0
  6
Continuous
 62
     7
100
AcDbLine
 10
129.8082848415919
 20
79.01811546913741
 30
0.0
 11
129.9015359467739
 21
78.9754983905559
 31
0.0
  0
LINE
  5
1C3
330
1F
100
AcDbEntity
  8
0
  6
Continuous
 62
     7
100
AcDbLine
 10
134.332364874318
 20
79.06824965848712
 30
0.0
 11
134.332364874318
 21
79.87703245635102
 31
0.0
  0
LINE
  5
1C4
330
1F
100
AcDbEntity
  8
0
  6
Continuous
 62
     7
100
AcDbLine
 10
134.332364874318
 20
79.87703245635102
 30
0.0
 11
104.3471706449725
 21
79.87703245635102
 31
0.0
  0
LINE
  5
1C5
330
1F
100
AcDbEntity
  8
0
  6
Continuous
 62
     7
100
AcDbLine
 10
129.777456300341
 20
79.03225493000242
 30
0.0
 11
106.637273448295
 21
79.03225493000242
 31
0.0
  0
LINE
  5
1C6
330
1F
100
AcDbEntity
  8
0
  6
Continuous
 62
     7
100
AcDbLine
 10
134.332364874318
 20
79.06824965848712
 30
0.0
 11
104.3471706449725
 21
79.0682496584872
 31
0.0
  0
LINE
  5
1C7
330
1F
100
AcDbEntity
  8
0
  6
Continuous
 62
     7
100
AcDbLine
 10
125.832364874318
 20
85.44649392514101
 30
0.0
 11
67.83236487431796
 21
85.4464939251411
 31
0.0
  0
LINE
  5
1C8
330
1F
100
AcDbEntity
  8
0
  6
Continuous
 62
     7
100
AcDbLine
 10
134.332364874318
 20
80.60176686920862
 30
0.0
 11
104.3471706449725
 21
80.60154195057602
 31
0.0
  0
LINE
  5
1C9
330
1F
100
AcDbEntity
  8
0
  6
Continuous
 62
     7
100
AcDbLine
 10
134.332364874318
 20
81.22834676608672
 30
0.0
 11
134.332364874318
 21
81.65620905233102
 31
0.0
  0
LINE
  5
1CA
330
1F
100
AcDbEntity
  8
0
  6
Continuous
 62
     7
100
AcDbLine
 10
134.332364874318
 20
82.14040819278081
 30
0.0
 11
134.332364874318
 21
82.310290611804
 31
0.0
  0
LINE
  5
1CB
330
1F
100
AcDbEntity
  8
0
  6
Continuous
 62
     7
100
AcDbLine
 10
134.332364874318
 20
81.7445764820168
 30
0.0
 11
134.332364874318
 21
82.14040819278081
 31
0.0
  0
LINE
  5
1CC
330
1F
100
AcDbEntity
  8
0
  6
Continuous
 62
     7
100
AcDbLine
 10
134.332364874318
 20
80.60176686920862
 30
0.0
 11
134.332364874318
 21
81.22834676608672
 31
0.0
  0
LINE
  5
1CD
330
1F
100
AcDbEntity
  8
0
  6
Continuous
 62
     7
100
AcDbLine
 10
89.31755910366346
 20
74.354007017863
 30
0.0
 11
59.33236487431797
 21
74.354007017863
 31
0.0
  0
LINE
  5
1CE
330
1F
100
AcDbEntity
  8
0
  6
Continuous
 62
     7
100
AcDbLine
 10
89.31755910366346
 20
73.4060601962807
 30
0.0
 11
59.33236487431797
 21
73.4060601962807
 31
0.0
  0
LINE
  5
1CF
330
1F
100
AcDbEntity
  8
0
  6
Continuous
 62
     7
100
AcDbLine
 10
89.31755910366346
 20
71.6535068784665
 30
0.0
 11
89.31755910366346
 21
72.5000151041125
 31
0.0
  0
LINE
  5
1D0
330
1F
100
AcDbEntity
  8
0
  6
Continuous
 62
     7
100
AcDbLine
 10
89.31755910366346
 20
71.6535068784665
 30
0.0
 11
59.33236487431797
 21
71.6535068784665
 31
0.0
  0
LINE
  5
1D1
330
1F
100
AcDbEntity
  8
0
  6
Continuous
 62
     7
100
AcDbLine
 10
59.33236487431797
 20
70.949809618565
 30
0.0
 11
59.33236487431797
 21
71.6535068784665
 31
0.0
  0
LINE
  5
1D2
330
1F
100
AcDbEntity
  8
0
  6
Continuous
 62
     7
100
AcDbLine
 10
59.33236487431797
 20
71.6535068784665
 30
0.0
 11
59.33236487431797
 21
72.5000151041125
 31
0.0
  0
LINE
  5
1D3
330
1F
100
AcDbEntity
  8
0
  6
Continuous
 62
     7
100
AcDbLine
 10
59.33236487431797
 20
72.5437128369682
 30
0.0
 11
59.33236487431797
 21
72.5000151041125
 31
0.0
  0
LINE
  5
1D4
330
1F
100
AcDbEntity
  8
0
  6
Continuous
 62
     7
100
AcDbLine
 10
89.31755910366346
 20
78.19116051280052
 30
0.0
 11
59.33236487431797
 21
78.19116051280052
 31
0.0
  0
LINE
  5
1D5
330
1F
100
AcDbEntity
  8
0
  6
Continuous
 62
     7
100
AcDbLine
 10
59.33236487431797
 20
75.32540486225092
 30
0.0
 11
59.33236487431797
 21
76.3013465753519
 31
0.0
  0
LINE
  5
1D6
330
1F
100
AcDbEntity
  8
0
  6
Continuous
 62
     7
100
AcDbLine
 10
59.33236487431797
 20
77.23849398815462
 30
0.0
 11
59.33236487431797
 21
77.26283656183791
 31
0.0
  0
LINE
  5
1D7
330
1F
100
AcDbEntity
  8
0
  6
Continuous
 62
     7
100
AcDbLine
 10
89.31755910366346
 20
77.26283656183791
 30
0.0
 11
59.33236487431797
 21
77.26283656183791
 31
0.0
  0
LINE
  5
1D8
330
1F
100
AcDbEntity
  8
0
  6
Continuous
 62
     7
100
AcDbLine
 10
59.33236487431797
 20
76.3013465753519
 30
0.0
 11
89.31755910366346
 21
76.30134657535201
 31
0.0
  0
LINE
  5
1D9
330
1F
100
AcDbEntity
  8
0
  6
Continuous
 62
     7
100
AcDbLine
 10
89.31755910366346
 20
75.32540486225092
 30
0.0
 11
59.33236487431797
 21
75.32540486225092
 31
0.0
  0
LINE
  5
1DA
330
1F
100
AcDbEntity
  8
0
  6
Continuous
 62
     7
100
AcDbLine
 10
59.33236487431797
 20
74.3712191519508
 30
0.0
 11
59.33236487431797
 21
75.32540486225092
 31
0.0
  0
LINE
  5
1DB
330
1F
100
AcDbEntity
  8
0
  6
Continuous
 62
     7
100
AcDbLine
 10
63.88727344829497
 20
79.03225493000242
 30
0.0
 11
87.02745630034084
 21
79.03225493000242
 31
0.0
  0
LINE
  5
1DC
330
1F
100
AcDbEntity
  8
0
  6
Continuous
 62
     7
100
AcDbLine
 10
63.85644490704406
 20
79.01811546913741
 30
0.0
 11
63.76319380186195
 21
78.9754983905559
 31
0.0
  0
LINE
  5
1DD
330
1F
100
AcDbEntity
  8
0
  6
Continuous
 62
     7
100
AcDbLine
 10
63.88727344829497
 20
79.03225493000242
 30
0.0
 11
63.85644490704406
 21
79.01811546913741
 31
0.0
  0
LINE
  5
1DE
330
1F
100
AcDbEntity
  8
0
  6
Continuous
 62
     7
100
AcDbLine
 10
64.83095432692423
 20
91.01542976884282
 30
0.0
 11
64.8317760060643
 21
96.01542976884282
 31
0.0
  0
LINE
  5
1DF
330
1F
100
AcDbEntity
  8
0
  6
Continuous
 62
     7
100
AcDbLine
 10
59.33236487431797
 20
99.59875216886611
 30
0.0
 11
59.33236487431797
 21
86.04500955882521
 31
0.0
  0
LINE
  5
1E0
330
1F
100
AcDbEntity
  8
0
  6
Continuous
 62
     7
100
AcDbLine
 10
89.31755910366346
 20
80.60154195057602
 30
0.0
 11
59.33236487431797
 21
80.60176686920862
 31
0.0
  0
LINE
  5
1E1
330
1F
100
AcDbEntity
  8
0
  6
Continuous
 62
     7
100
AcDbLine
 10
89.31755910366346
 20
79.87703245635102
 30
0.0
 11
59.33236487431797
 21
79.8770324563509
 31
0.0
  0
LINE
  5
1E2
330
1F
100
AcDbEntity
  8
0
  6
Continuous
 62
     7
100
AcDbLine
 10
59.33236487431797
 20
77.23849398815462
 30
0.0
 11
89.31755910366346
 21
77.2384939881547
 31
0.0
  0
LINE
  5
1E3
330
1F
100
AcDbEntity
  8
0
  6
Continuous
 62
     7
100
AcDbLine
 10
59.33236487431797
 20
74.3712191519508
 30
0.0
 11
89.31755910366346
 21
74.37121915195091
 31
0.0
  0
LINE
  5
1E4
330
1F
100
AcDbEntity
  8
0
  6
Continuous
 62
     7
100
AcDbLine
 10
89.31755910366346
 20
79.0181154691375
 30
0.0
 11
87.05828484159164
 21
79.01811546913741
 31
0.0
  0
LINE
  5
1E5
330
1F
100
AcDbEntity
  8
0
  6
Continuous
 62
     7
100
AcDbLine
 10
63.76319380186195
 20
78.9754983905559
 30
0.0
 11
87.15153594677392
 21
78.9754983905559
 31
0.0
  0
LINE
  5
1E6
330
1F
100
AcDbEntity
  8
0
  6
Continuous
 62
     7
100
AcDbLine
 10
63.85644490704406
 20
79.01811546913741
 30
0.0
 11
59.33236487431797
 21
79.01811546913741
 31
0.0
  0
LINE
  5
1E7
330
1F
100
AcDbEntity
  8
0
  6
Continuous
 62
     7
100
AcDbLine
 10
59.33236487431797
 20
78.19116051280052
 30
0.0
 11
59.33236487431797
 21
79.01811546913741
 31
0.0
  0
LINE
  5
1E8
330
1F
100
AcDbEntity
  8
0
  6
Continuous
 62
     7
100
AcDbLine
 10
89.31755910366346
 20
80.52972529113431
 30
0.0
 11
59.33236487431797
 21
80.52972529113431
 31
0.0
  0
LINE
  5
1E9
330
1F
100
AcDbEntity
  8
0
  6
Continuous
 62
     7
100
AcDbLine
 10
59.33236487431797
 20
76.3013465753519
 30
0.0
 11
59.33236487431797
 21
77.23849398815462
 31
0.0
  0
LINE
  5
1EA
330
1F
100
AcDbEntity
  8
0
  6
Continuous
 62
     7
100
AcDbLine
 10
59.33236487431797
 20
79.8770324563509
 30
0.0
 11
59.33236487431797
 21
80.52972529113431
 31
0.0
  0
LINE
  5
1EB
330
1F
100
AcDbEntity
  8
0
  6
Continuous
 62
     7
100
AcDbLine
 10
59.33236487431797
 20
79.068249658487
 30
0.0
 11
59.33236487431797
 21
79.8770324563509
 31
0.0
  0
LINE
  5
1EC
330
1F
100
AcDbEntity
  8
0
  6
Continuous
 62
     7
100
AcDbLine
 10
59.33236487431797
 20
86.04500955882521
 30
0.0
 11
59.33236487431797
 21
86.0400795938282
 31
0.0
  0
LINE
  5
1ED
330
1F
100
AcDbEntity
  8
0
  6
Continuous
 62
     7
100
AcDbLine
 10
59.33236487431797
 20
86.0400795938282
 30
0.0
 11
59.33236487431797
 21
82.55884799331672
 31
0.0
  0
LINE
  5
1EE
330
1F
100
AcDbEntity
  8
0
  6
Continuous
 62
     7
100
AcDbLine
 10
64.83236487431796
 20
87.6122283740056
 30
0.0
 11
64.83095432692423
 21
91.01542976884282
 31
0.0
  0
LINE
  5
1EF
330
1F
100
AcDbEntity
  8
0
  6
Continuous
 62
     7
100
AcDbLine
 10
134.332364874318
 20
68.558864814708
 30
0.0
 11
59.33236487431797
 21
68.55886481470792
 31
0.0
  0
LINE
  5
1F0
330
1F
100
AcDbEntity
  8
0
  6
Continuous
 62
     7
100
AcDbLine
 10
59.33236487431797
 20
70.949809618565
 30
0.0
 11
89.31755910366346
 21
70.94980961856511
 31
0.0
  0
LINE
  5
1F1
330
1F
100
AcDbEntity
  8
0
  6
Continuous
 62
     7
100
AcDbLine
 10
104.3471706449725
 20
70.88301183906042
 30
0.0
 11
134.332364874318
 21
70.88301183906582
 31
0.0
  0
LINE
  5
1F2
330
1F
100
AcDbEntity
  8
0
  6
Continuous
 62
     7
100
AcDbLine
 10
59.33236487431797
 20
70.8830118390657
 30
0.0
 11
89.31755910366346
 21
70.88301183906042
 31
0.0
  0
LINE
  5
1F3
330
1F
100
AcDbEntity
  8
0
  6
Continuous
 62
     7
100
AcDbLine
 10
134.332364874318
 20
70.2035267954276
 30
0.0
 11
59.33236487431797
 21
70.2035267954276
 31
0.0
  0
LINE
  5
1F4
330
1F
100
AcDbEntity
  8
0
  6
Continuous
 62
     7
100
AcDbLine
 10
59.33236487431797
 20
70.949809618565
 30
0.0
 11
59.33236487431797
 21
70.8830118390657
 31
0.0
  0
LINE
  5
1F5
330
1F
100
AcDbEntity
  8
0
  6
Continuous
 62
     7
100
AcDbLine
 10
59.33236487431797
 20
70.2035267954276
 30
0.0
 11
59.33236487431797
 21
70.8830118390657
 31
0.0
  0
LINE
  5
1F6
330
1F
100
AcDbEntity
  8
0
  6
Continuous
 62
     7
100
AcDbLine
 10
59.33236487431797
 20
69.71299971178031
 30
0.0
 11
59.33236487431797
 21
70.2035267954276
 31
0.0
  0
LINE
  5
1F7
330
1F
100
AcDbEntity
  8
0
  6
Continuous
 62
     7
100
AcDbLine
 10
59.33236487431797
 20
69.71299971178031
 30
0.0
 11
134.332364874318
 21
69.71299971178031
 31
0.0
  0
LINE
  5
1F8
330
1F
100
AcDbEntity
  8
0
  6
Continuous
 62
     7
100
AcDbLine
 10
134.332364874318
 20
69.6282771510232
 30
0.0
 11
59.33236487431797
 21
69.6282771510232
 31
0.0
  0
LINE
  5
1F9
330
1F
100
AcDbEntity
  8
0
  6
Continuous
 62
     7
100
AcDbLine
 10
134.332364874318
 20
68.62849845404311
 30
0.0
 11
59.33236487431797
 21
68.628498454043
 31
0.0
  0
LINE
  5
1FA
330
1F
100
AcDbEntity
  8
0
  6
Continuous
 62
     7
100
AcDbLine
 10
134.332364874318
 20
68.8330236277091
 30
0.0
 11
59.33236487431797
 21
68.8330236277091
 31
0.0
  0
LINE
  5
1FB
330
1F
100
AcDbEntity
  8
0
  6
Continuous
 62
     7
100
AcDbLine
 10
59.33236487431797
 20
68.92910695308491
 30
0.0
 11
134.332364874318
 21
68.92910695308491
 31
0.0
  0
LINE
  5
1FC
330
1F
100
AcDbEntity
  8
0
  6
Continuous
 62
     7
100
AcDbLine
 10
134.332364874318
 20
69.16845948584451
 30
0.0
 11
59.33236487431797
 21
69.16845948584451
 31
0.0
  0
LINE
  5
1FD
330
1F
100
AcDbEntity
  8
0
  6
Continuous
 62
     7
100
AcDbLine
 10
59.33236487431797
 20
68.92910695308491
 30
0.0
 11
59.33236487431797
 21
69.16845948584451
 31
0.0
  0
LINE
  5
1FE
330
1F
100
AcDbEntity
  8
0
  6
Continuous
 62
     7
100
AcDbLine
 10
59.33236487431797
 20
69.16845948584451
 30
0.0
 11
59.33236487431797
 21
69.6282771510232
 31
0.0
  0
LINE
  5
1FF
330
1F
100
AcDbEntity
  8
0
  6
Continuous
 62
     7
100
AcDbLine
 10
59.33236487431797
 20
68.628498454043
 30
0.0
 11
59.33236487431797
 21
68.8330236277091
 31
0.0
  0
LINE
  5
200
330
1F
100
AcDbEntity
  8
0
  6
Continuous
 62
     7
100
AcDbLine
 10
89.31755910366346
 20
79.0682496584872
 30
0.0
 11
59.33236487431797
 21
79.068249658487
 31
0.0
  0
LINE
  5
201
330
1F
100
AcDbEntity
  8
0
  6
Continuous
 62
     7
100
AcDbLine
 10
59.33236487431797
 20
79.01811546913741
 30
0.0
 11
59.33236487431797
 21
79.068249658487
 31
0.0
  0
LINE
  5
202
330
1F
100
AcDbEntity
  8
0
  6
Continuous
 62
     7
100
AcDbLine
 10
134.332364874318
 20
81.22834676608672
 30
0.0
 11
59.33236487431797
 21
81.22834676608672
 31
0.0
  0
LINE
  5
203
330
1F
100
AcDbEntity
  8
0
  6
Continuous
 62
     7
100
AcDbLine
 10
134.332364874318
 20
81.65620905233102
 30
0.0
 11
59.33236487431797
 21
81.65620905233102
 31
0.0
  0
LINE
  5
204
330
1F
100
AcDbEntity
  8
0
  6
Continuous
 62
     7
100
AcDbLine
 10
59.33236487431797
 20
81.7445764820168
 30
0.0
 11
134.332364874318
 21
81.7445764820168
 31
0.0
  0
LINE
  5
205
330
1F
100
AcDbEntity
  8
0
  6
Continuous
 62
     7
100
AcDbLine
 10
134.332364874318
 20
82.14040819278081
 30
0.0
 11
59.33236487431797
 21
82.14040819278081
 31
0.0
  0
LINE
  5
206
330
1F
100
AcDbEntity
  8
0
  6
Continuous
 62
     7
100
AcDbLine
 10
134.332364874318
 20
82.310290611804
 30
0.0
 11
59.33236487431797
 21
82.310290611804
 31
0.0
  0
LINE
  5
207
330
1F
100
AcDbEntity
  8
0
  6
Continuous
 62
     7
100
AcDbLine
 10
134.332364874318
 20
82.40813748438062
 30
0.0
 11
59.33236487431797
 21
82.40813748438062
 31
0.0
  0
LINE
  5
208
330
1F
100
AcDbEntity
  8
0
  6
Continuous
 62
     7
100
AcDbLine
 10
134.332364874318
 20
82.54255331069292
 30
0.0
 11
59.33236487431797
 21
82.54255331069292
 31
0.0
  0
LINE
  5
209
330
1F
100
AcDbEntity
  8
0
  6
Continuous
 62
     7
100
AcDbLine
 10
59.33236487431797
 20
82.55884799331672
 30
0.0
 11
134.332364874318
 21
82.55884799331672
 31
0.0
  0
LINE
  5
20A
330
1F
100
AcDbEntity
  8
0
  6
Continuous
 62
     7
100
AcDbLine
 10
134.332364874318
 20
74.37121915195091
 30
0.0
 11
134.332364874318
 21
75.32540486225092
 31
0.0
  0
LINE
  5
20B
330
1F
100
AcDbEntity
  8
0
  6
Continuous
 62
     7
100
AcDbLine
 10
134.332364874318
 20
74.354007017863
 30
0.0
 11
104.3471706449725
 21
74.354007017863
 31
0.0
  0
LINE
  5
20C
330
1F
100
AcDbEntity
  8
0
  6
Continuous
 62
     7
100
AcDbLine
 10
89.31755910366346
 20
72.5000151041125
 30
0.0
 11
59.33236487431797
 21
72.5000151041125
 31
0.0
  0
LINE
  5
20D
330
1F
100
AcDbEntity
  8
0
  6
Continuous
 62
     7
100
AcDbLine
 10
89.31755910366346
 20
72.5437128369682
 30
0.0
 11
59.33236487431797
 21
72.5437128369682
 31
0.0
  0
LINE
  5
20E
330
1F
100
AcDbEntity
  8
0
  6
Continuous
 62
     7
100
AcDbLine
 10
134.332364874318
 20
71.6535068784665
 30
0.0
 11
104.3471706449725
 21
71.6535068784665
 31
0.0
  0
LINE
  5
20F
330
1F
100
AcDbEntity
  8
0
  6
Continuous
 62
     7
100
AcDbLine
 10
134.332364874318
 20
70.94980961856511
 30
0.0
 11
134.332364874318
 21
71.6535068784665
 31
0.0
  0
LINE
  5
210
330
1F
100
AcDbEntity
  8
0
  6
Continuous
 62
     7
100
AcDbLine
 10
104.3471706449725
 20
70.94980961856511
 30
0.0
 11
134.332364874318
 21
70.94980961856511
 31
0.0
  0
LINE
  5
211
330
1F
100
AcDbEntity
  8
0
  6
Continuous
 62
     7
100
AcDbLine
 10
134.332364874318
 20
72.5000151041125
 30
0.0
 11
104.3471706449725
 21
72.5000151041125
 31
0.0
  0
LINE
  5
212
330
1F
100
AcDbEntity
  8
0
  6
Continuous
 62
     7
100
AcDbLine
 10
134.332364874318
 20
72.5437128369682
 30
0.0
 11
134.332364874318
 21
73.4060601962807
 31
0.0
  0
LINE
  5
213
330
1F
100
AcDbEntity
  8
0
  6
Continuous
 62
     7
100
AcDbLine
 10
134.332364874318
 20
71.6535068784665
 30
0.0
 11
134.332364874318
 21
72.5000151041125
 31
0.0
  0
LINE
  5
214
330
1F
100
AcDbEntity
  8
0
  6
Continuous
 62
     7
100
AcDbLine
 10
128.832364874318
 20
101.0154297688428
 30
0.0
 11
134.332364874318
 21
101.0154297688428
 31
0.0
  0
LINE
  5
215
330
1F
100
AcDbEntity
  8
0
  6
Continuous
 62
     7
100
AcDbLine
 10
134.332364874318
 20
72.5437128369682
 30
0.0
 11
104.3471706449725
 21
72.5437128369682
 31
0.0
  0
LINE
  5
216
330
1F
100
AcDbEntity
  8
0
  6
Continuous
 62
     7
100
AcDbLine
 10
134.332364874318
 20
73.4060601962807
 30
0.0
 11
104.3471706449725
 21
73.4060601962807
 31
0.0
  0
LINE
  5
217
330
1F
100
AcDbEntity
  8
0
  6
Continuous
 62
     7
100
AcDbLine
 10
134.332364874318
 20
73.4060601962807
 30
0.0
 11
134.332364874318
 21
74.354007017863
 31
0.0
  0
LINE
  5
218
330
1F
100
AcDbEntity
  8
0
  6
Continuous
 62
     7
100
AcDbLine
 10
128.832364874318
 20
99.59875216886611
 30
0.0
 11
128.832364874318
 21
96.01542976884282
 31
0.0
  0
LINE
  5
219
330
1F
100
AcDbEntity
  8
0
  6
Continuous
 62
     7
100
AcDbLine
 10
128.832364874318
 20
101.0154297688428
 30
0.0
 11
128.832364874318
 21
99.59875216886611
 31
0.0
  0
LINE
  5
21A
330
1F
100
AcDbEntity
  8
0
  6
Continuous
 62
     7
100
AcDbLine
 10
128.832364874318
 20
68.50801894858502
 30
0.0
 11
134.332364874318
 21
68.5080189485851
 31
0.0
  0
LINE
  5
21B
330
1F
100
AcDbEntity
  8
0
  6
Continuous
 62
     7
100
AcDbLine
 10
134.332364874318
 20
68.92910695308491
 30
0.0
 11
134.332364874318
 21
69.16845948584451
 31
0.0
  0
LINE
  5
21C
330
1F
100
AcDbEntity
  8
0
  6
Continuous
 62
     7
100
AcDbLine
 10
134.332364874318
 20
69.71299971178031
 30
0.0
 11
134.332364874318
 21
70.2035267954276
 31
0.0
  0
LINE
  5
21D
330
1F
100
AcDbEntity
  8
0
  6
Continuous
 62
     7
100
AcDbLine
 10
134.332364874318
 20
70.2035267954276
 30
0.0
 11
134.332364874318
 21
70.88301183906582
 31
0.0
  0
LINE
  5
21E
330
1F
100
AcDbEntity
  8
0
  6
Continuous
 62
     7
100
AcDbLine
 10
134.332364874318
 20
69.16845948584451
 30
0.0
 11
134.332364874318
 21
69.6282771510232
 31
0.0
  0
LINE
  5
21F
330
1F
100
AcDbEntity
  8
0
  6
Continuous
 62
     7
100
AcDbLine
 10
134.332364874318
 20
68.62849845404311
 30
0.0
 11
134.332364874318
 21
68.8330236277091
 31
0.0
  0
LINE
  5
220
330
1F
100
AcDbEntity
  8
0
  6
Continuous
 62
     7
100
AcDbLine
 10
134.332364874318
 20
76.30134657535201
 30
0.0
 11
134.332364874318
 21
77.2384939881547
 31
0.0
  0
LINE
  5
221
330
1F
100
AcDbEntity
  8
0
  6
Continuous
 62
     7
100
AcDbLine
 10
134.332364874318
 20
78.19116051280052
 30
0.0
 11
134.332364874318
 21
79.01811546913741
 31
0.0
  0
LINE
  5
222
330
1F
100
AcDbEntity
  8
0
  6
Continuous
 62
     7
100
AcDbLine
 10
134.332364874318
 20
79.01811546913741
 30
0.0
 11
129.8082848415919
 21
79.01811546913741
 31
0.0
  0
LINE
  5
223
330
1F
100
AcDbEntity
  8
0
  6
Continuous
 62
     7
100
AcDbLine
 10
134.332364874318
 20
79.87703245635102
 30
0.0
 11
134.332364874318
 21
80.52972529113431
 31
0.0
  0
LINE
  5
224
330
1F
100
AcDbEntity
  8
0
  6
Continuous
 62
     7
100
AcDbLine
 10
128.832364874318
 20
68.50801894858502
 30
0.0
 11
128.832364874318
 21
68.5480135627915
 31
0.0
  0
LINE
  5
225
330
1F
100
AcDbEntity
  8
0
  6
Continuous
 62
     7
100
AcDbLine
 10
134.332364874318
 20
68.5080189485851
 30
0.0
 11
134.332364874318
 21
68.558864814708
 31
0.0
  0
LINE
  5
226
330
1F
100
AcDbEntity
  8
0
  6
Continuous
 62
     7
100
AcDbLine
 10
134.332364874318
 20
69.71299971178031
 30
0.0
 11
134.332364874318
 21
69.6282771510232
 31
0.0
  0
LINE
  5
227
330
1F
100
AcDbEntity
  8
0
  6
Continuous
 62
     7
100
AcDbLine
 10
134.332364874318
 20
68.92910695308491
 30
0.0
 11
134.332364874318
 21
68.8330236277091
 31
0.0
  0
LINE
  5
228
330
1F
100
AcDbEntity
  8
0
  6
Continuous
 62
     7
100
AcDbLine
 10
134.332364874318
 20
68.558864814708
 30
0.0
 11
134.332364874318
 21
68.62849845404311
 31
0.0
  0
LINE
  5
229
330
1F
100
AcDbEntity
  8
0
  6
Continuous
 62
     7
100
AcDbLine
 10
134.332364874318
 20
74.354007017863
 30
0.0
 11
134.332364874318
 21
74.37121915195091
 31
0.0
  0
LINE
  5
22A
330
1F
100
AcDbEntity
  8
0
  6
Continuous
 62
     7
100
AcDbLine
 10
134.332364874318
 20
77.2384939881547
 30
0.0
 11
134.332364874318
 21
77.26283656183791
 31
0.0
  0
LINE
  5
22B
330
1F
100
AcDbEntity
  8
0
  6
Continuous
 62
     7
100
AcDbLine
 10
134.332364874318
 20
79.01811546913741
 30
0.0
 11
134.332364874318
 21
79.06824965848712
 31
0.0
  0
LINE
  5
22C
330
1F
100
AcDbEntity
  8
0
  6
Continuous
 62
     7
100
AcDbLine
 10
134.332364874318
 20
72.5437128369682
 30
0.0
 11
134.332364874318
 21
72.5000151041125
 31
0.0
  0
LINE
  5
22D
330
1F
100
AcDbEntity
  8
0
  6
Continuous
 62
     7
100
AcDbLine
 10
134.332364874318
 20
70.94980961856511
 30
0.0
 11
134.332364874318
 21
70.88301183906582
 31
0.0
  0
LINE
  5
22E
330
1F
100
AcDbEntity
  8
0
  6
Continuous
 62
     7
100
AcDbLine
 10
134.332364874318
 20
80.52972529113431
 30
0.0
 11
134.332364874318
 21
80.60176686920862
 31
0.0
  0
LINE
  5
22F
330
1F
100
AcDbEntity
  8
0
  6
Continuous
 62
     7
100
AcDbLine
 10
134.332364874318
 20
101.0154297688428
 30
0.0
 11
134.332364874318
 21
99.59875216886611
 31
0.0
  0
LINE
  5
230
330
1F
100
AcDbEntity
  8
0
  6
Continuous
 62
     7
100
AcDbLine
 10
134.332364874318
 20
81.65620905233102
 30
0.0
 11
134.332364874318
 21
81.7445764820168
 31
0.0
  0
LINE
  5
231
330
1F
100
AcDbEntity
  8
0
  6
Continuous
 62
     7
100
AcDbLine
 10
134.332364874318
 20
82.310290611804
 30
0.0
 11
134.332364874318
 21
82.40813748438062
 31
0.0
  0
LINE
  5
232
330
1F
100
AcDbEntity
  8
0
  6
Continuous
 62
     7
100
AcDbLine
 10
134.332364874318
 20
82.54255331069292
 30
0.0
 11
134.332364874318
 21
82.40813748438062
 31
0.0
  0
LINE
  5
233
330
1F
100
AcDbEntity
  8
0
  6
Continuous
 62
     7
100
AcDbLine
 10
134.332364874318
 20
82.55884799331672
 30
0.0
 11
134.332364874318
 21
82.54255331069292
 31
0.0
  0
LINE
  5
234
330
1F
100
AcDbEntity
  8
0
  6
Continuous
 62
     7
100
AcDbLine
 10
134.332364874318
 20
99.59875216886611
 30
0.0
 11
134.332364874318
 21
82.55884799331672
 31
0.0
  0
LINE
  5
235
330
1F
100
AcDbEntity
  8
0
  6
Continuous
 62
     7
100
AcDbLine
 10
59.33236487431797
 20
78.19116051280052
 30
0.0
 11
59.33236487431797
 21
77.26283656183791
 31
0.0
  0
LINE
  5
236
330
1F
100
AcDbEntity
  8
0
  6
Continuous
 62
     7
100
AcDbLine
 10
59.33236487431797
 20
69.71299971178031
 30
0.0
 11
59.33236487431797
 21
69.6282771510232
 31
0.0
  0
LINE
  5
237
330
1F
100
AcDbEntity
  8
0
  6
Continuous
 62
     7
100
AcDbLine
 10
117.6000369570255
 20
157.2184798505478
 30
0.0
 11
126.7230439778595
 21
110.0802544005459
 31
0.0
  0
LINE
  5
238
330
1F
100
AcDbEntity
  8
0
  6
Continuous
 62
     7
100
AcDbLine
 10
67.53236487431795
 20
104.0654297685305
 30
0.0
 11
66.83236487431796
 21
104.765429768843
 31
0.0
  0
LINE
  5
239
330
1F
100
AcDbEntity
  8
0
  6
Continuous
 62
     7
100
AcDbLine
 10
67.53236487431795
 20
101.5654297685305
 30
0.0
 11
66.83236487431796
 21
102.2654297694728
 31
0.0
  0
LINE
  5
23A
330
1F
100
AcDbEntity
  8
0
  6
Continuous
 62
     7
100
AcDbLine
 10
71.11392602027567
 20
117.5154297688452
 30
0.0
 11
122.5508037283603
 21
117.5154297688452
 31
0.0
  0
LINE
  5
23B
330
1F
100
AcDbEntity
  8
0
  6
Continuous
 62
     7
100
AcDbLine
 10
119.3661764599255
 20
116.5154297688453
 30
0.0
 11
74.2985532887104
 21
116.5154297688453
 31
0.0
  0
LINE
  5
23C
330
1F
100
AcDbEntity
  8
0
  6
Continuous
 62
     7
100
AcDbLine
 10
67.53236487431795
 20
101.5654297685305
 30
0.0
 11
72.83236487431796
 21
101.5654297688452
 31
0.0
  0
LINE
  5
23D
330
1F
100
AcDbEntity
  8
0
  6
Continuous
 62
     7
100
AcDbLine
 10
72.83236487431796
 20
101.4654297688452
 30
0.0
 11
67.53236487400383
 21
101.4654297691587
 31
0.0
  0
LINE
  5
23E
330
1F
100
AcDbEntity
  8
0
  6
Continuous
 62
     7
100
AcDbLine
 10
67.53236487431795
 20
101.5654297685305
 30
0.0
 11
67.53236487400383
 21
101.4654297691587
 31
0.0
  0
LINE
  5
23F
330
1F
100
AcDbEntity
  8
0
  6
Continuous
 62
     7
100
AcDbLine
 10
67.53236487400383
 20
106.5654297685305
 30
0.0
 11
72.83236487431796
 21
106.5654297688452
 31
0.0
  0
LINE
  5
240
330
1F
100
AcDbEntity
  8
0
  6
Continuous
 62
     7
100
AcDbLine
 10
72.83236487431796
 20
98.9654297688452
 30
0.0
 11
67.53236487431795
 21
98.96542976915872
 31
0.0
  0
LINE
  5
241
330
1F
100
AcDbEntity
  8
0
  6
Continuous
 62
     7
100
AcDbLine
 10
67.53236487431795
 20
99.06542976884462
 30
0.0
 11
72.83236487431796
 21
99.06542976884522
 31
0.0
  0
LINE
  5
242
330
1F
100
AcDbEntity
  8
0
  6
Continuous
 62
     7
100
AcDbLine
 10
67.53236487431795
 20
99.06542976884462
 30
0.0
 11
67.53236487431795
 21
98.96542976915872
 31
0.0
  0
LINE
  5
243
330
1F
100
AcDbEntity
  8
0
  6
Continuous
 62
     7
100
AcDbLine
 10
72.83236487431796
 20
99.06542976884522
 30
0.0
 11
120.832364874318
 21
99.06542976884522
 31
0.0
  0
LINE
  5
244
330
1F
100
AcDbEntity
  8
0
  6
Continuous
 62
     7
100
AcDbLine
 10
72.83236487431796
 20
105.7654297688453
 30
0.0
 11
120.832364874318
 21
105.7654297688453
 31
0.0
  0
LINE
  5
245
330
1F
100
AcDbEntity
  8
0
  6
Continuous
 62
     7
100
AcDbLine
 10
120.832364874318
 20
104.7654297688453
 30
0.0
 11
72.83236487431796
 21
104.7654297688453
 31
0.0
  0
LINE
  5
246
330
1F
100
AcDbEntity
  8
0
  6
Continuous
 62
     7
100
AcDbLine
 10
120.832364874318
 20
103.9654297688452
 30
0.0
 11
72.83236487431796
 21
103.9654297688452
 31
0.0
  0
LINE
  5
247
330
1F
100
AcDbEntity
  8
0
  6
Continuous
 62
     7
100
AcDbLine
 10
72.83236487431796
 20
104.0654297688452
 30
0.0
 11
120.832364874318
 21
104.0654297688452
 31
0.0
  0
LINE
  5
248
330
1F
100
AcDbEntity
  8
0
  6
Continuous
 62
     7
100
AcDbLine
 10
126.1323648746321
 20
103.9654297691587
 30
0.0
 11
120.832364874318
 21
103.9654297688452
 31
0.0
  0
LINE
  5
249
330
1F
100
AcDbEntity
  8
0
  6
Continuous
 62
     7
100
AcDbLine
 10
120.832364874318
 20
101.5654297688452
 30
0.0
 11
126.1323648746321
 21
101.5654297685305
 31
0.0
  0
LINE
  5
24A
330
1F
100
AcDbEntity
  8
0
  6
Continuous
 62
     7
100
AcDbLine
 10
126.132364874318
 20
101.4654297691587
 30
0.0
 11
120.832364874318
 21
101.4654297688452
 31
0.0
  0
LINE
  5
24B
330
1F
100
AcDbEntity
  8
0
  6
Continuous
 62
     7
100
AcDbLine
 10
126.1323648746321
 20
101.5654297685305
 30
0.0
 11
126.132364874318
 21
101.4654297691587
 31
0.0
  0
LINE
  5
24C
330
1F
100
AcDbEntity
  8
0
  6
Continuous
 62
     7
100
AcDbLine
 10
120.832364874318
 20
104.0654297688452
 30
0.0
 11
126.1323648746321
 21
104.0654297685305
 31
0.0
  0
LINE
  5
24D
330
1F
100
AcDbEntity
  8
0
  6
Continuous
 62
     7
100
AcDbLine
 10
126.1323648746321
 20
104.0654297685305
 30
0.0
 11
126.1323648746321
 21
103.9654297691587
 31
0.0
  0
LINE
  5
24E
330
1F
100
AcDbEntity
  8
0
  6
Continuous
 62
     7
100
AcDbLine
 10
126.1323648746321
 20
106.4654297691587
 30
0.0
 11
120.832364874318
 21
106.4654297688452
 31
0.0
  0
LINE
  5
24F
330
1F
100
AcDbEntity
  8
0
  6
Continuous
 62
     7
100
AcDbLine
 10
72.83236487431796
 20
98.26542976884532
 30
0.0
 11
120.832364874318
 21
98.26542976884532
 31
0.0
  0
LINE
  5
250
330
1F
100
AcDbEntity
  8
0
  6
Continuous
 62
     7
100
AcDbLine
 10
120.832364874318
 20
98.9654297688452
 30
0.0
 11
72.83236487431796
 21
98.9654297688452
 31
0.0
  0
LINE
  5
251
330
1F
100
AcDbEntity
  8
0
  6
Continuous
 62
     7
100
AcDbLine
 10
120.832364874318
 20
99.06542976884522
 30
0.0
 11
126.1323648746321
 21
99.0654297685305
 31
0.0
  0
LINE
  5
252
330
1F
100
AcDbEntity
  8
0
  6
Continuous
 62
     7
100
AcDbLine
 10
126.1323648746321
 20
98.96542976915872
 30
0.0
 11
120.832364874318
 21
98.9654297688452
 31
0.0
  0
LINE
  5
253
330
1F
100
AcDbEntity
  8
0
  6
Continuous
 62
     7
100
AcDbLine
 10
126.1323648746321
 20
99.0654297685305
 30
0.0
 11
126.1323648746321
 21
98.96542976915872
 31
0.0
  0
LINE
  5
254
330
1F
100
AcDbEntity
  8
0
  6
Continuous
 62
     7
100
AcDbLine
 10
120.832364874318
 20
106.4654297688452
 30
0.0
 11
72.83236487431796
 21
106.4654297688452
 31
0.0
  0
LINE
  5
255
330
1F
100
AcDbEntity
  8
0
  6
Continuous
 62
     7
100
AcDbLine
 10
72.83236487431796
 20
106.5654297688452
 30
0.0
 11
120.832364874318
 21
106.5654297688452
 31
0.0
  0
LINE
  5
256
330
1F
100
AcDbEntity
  8
0
  6
Continuous
 62
     7
100
AcDbLine
 10
120.832364874318
 20
107.2654297688453
 30
0.0
 11
72.83236487431796
 21
107.2654297688453
 31
0.0
  0
LINE
  5
257
330
1F
100
AcDbEntity
  8
0
  6
Continuous
 62
     7
100
AcDbLine
 10
120.832364874318
 20
106.5654297688452
 30
0.0
 11
126.1323648746321
 21
106.5654297685305
 31
0.0
  0
LINE
  5
258
330
1F
100
AcDbEntity
  8
0
  6
Continuous
 62
     7
100
AcDbLine
 10
126.1323648746321
 20
106.5654297685305
 30
0.0
 11
126.1323648746321
 21
106.4654297691587
 31
0.0
  0
LINE
  5
259
330
1F
100
AcDbEntity
  8
0
  6
Continuous
 62
     7
100
AcDbLine
 10
120.832364874318
 20
99.76542976884532
 30
0.0
 11
72.83236487431796
 21
99.76542976884532
 31
0.0
  0
LINE
  5
25A
330
1F
100
AcDbEntity
  8
0
  6
Continuous
 62
     7
100
AcDbLine
 10
120.832364874318
 20
86.01542976884532
 30
0.0
 11
72.83236487431796
 21
86.01542976884532
 31
0.0
  0
LINE
  5
25B
330
1F
100
AcDbEntity
  8
0
  6
Continuous
 62
     7
100
AcDbLine
 10
72.83236487431796
 20
103.2654297688453
 30
0.0
 11
120.832364874318
 21
103.2654297688453
 31
0.0
  0
LINE
  5
25C
330
1F
100
AcDbEntity
  8
0
  6
Continuous
 62
     7
100
AcDbLine
 10
72.83236487431796
 20
101.5654297688452
 30
0.0
 11
120.832364874318
 21
101.5654297688452
 31
0.0
  0
LINE
  5
25D
330
1F
100
AcDbEntity
  8
0
  6
Continuous
 62
     7
100
AcDbLine
 10
72.83236487431796
 20
100.7654297688453
 30
0.0
 11
120.832364874318
 21
100.7654297688453
 31
0.0
  0
LINE
  5
25E
330
1F
100
AcDbEntity
  8
0
  6
Continuous
 62
     7
100
AcDbLine
 10
120.832364874318
 20
101.4654297688452
 30
0.0
 11
72.83236487431796
 21
101.4654297688452
 31
0.0
  0
LINE
  5
25F
330
1F
100
AcDbEntity
  8
0
  6
Continuous
 62
     7
100
AcDbLine
 10
120.832364874318
 20
102.2654297688453
 30
0.0
 11
72.83236487431796
 21
102.2654297688453
 31
0.0
  0
LINE
  5
260
330
1F
100
AcDbEntity
  8
0
  6
Continuous
 62
     7
100
AcDbLine
 10
80.68565006290387
 20
149.5154297688453
 30
0.0
 11
112.9790796857321
 21
149.5154297688453
 31
0.0
  0
LINE
  5
261
330
1F
100
AcDbEntity
  8
0
  6
Continuous
 62
     7
100
AcDbLine
 10
77.11392602027567
 20
148.5154297688452
 30
0.0
 11
116.5508037283603
 21
148.5154297688452
 31
0.0
  0
LINE
  5
262
330
1F
100
AcDbEntity
  8
0
  6
Continuous
 62
     7
100
AcDbLine
 10
126.1323648746321
 20
99.0654297685305
 30
0.0
 11
126.832364874318
 21
99.7654297691587
 31
0.0
  0
LINE
  5
263
330
1F
100
AcDbEntity
  8
0
  6
Continuous
 62
     7
100
AcDbLine
 10
126.132364874318
 20
101.4654297691587
 30
0.0
 11
126.832364874318
 21
100.7654297688446
 31
0.0
  0
LINE
  5
264
330
1F
100
AcDbEntity
  8
0
  6
Continuous
 62
     7
100
AcDbLine
 10
116.5508037283603
 20
148.5154297688452
 30
0.0
 11
122.5508037283603
 21
117.5154297688452
 31
0.0
  0
LINE
  5
265
330
1F
100
AcDbEntity
  8
0
  6
Continuous
 62
     7
100
AcDbLine
 10
120.832364874318
 20
86.01542976884532
 30
0.0
 11
126.832364874318
 21
86.01542976884461
 31
0.0
  0
LINE
  5
266
330
1F
100
AcDbEntity
  8
0
  6
Continuous
 62
     7
100
AcDbLine
 10
126.832364874318
 20
99.7654297691587
 30
0.0
 11
120.832364874318
 21
99.76542976884532
 31
0.0
  0
LINE
  5
267
330
1F
100
AcDbEntity
  8
0
  6
Continuous
 62
     7
100
AcDbLine
 10
126.832364874318
 20
104.7654297688446
 30
0.0
 11
126.832364874318
 21
103.265429768843
 31
0.0
  0
LINE
  5
268
330
1F
100
AcDbEntity
  8
0
  6
Continuous
 62
     7
100
AcDbLine
 10
126.832364874318
 20
105.7654297688446
 30
0.0
 11
126.832364874318
 21
104.7654297688446
 31
0.0
  0
LINE
  5
269
330
1F
100
AcDbEntity
  8
0
  6
Continuous
 62
     7
100
AcDbLine
 10
126.832364874318
 20
102.265429768843
 30
0.0
 11
126.832364874318
 21
100.7654297688446
 31
0.0
  0
LINE
  5
26A
330
1F
100
AcDbEntity
  8
0
  6
Continuous
 62
     7
100
AcDbLine
 10
126.832364874318
 20
103.265429768843
 30
0.0
 11
126.832364874318
 21
102.265429768843
 31
0.0
  0
LINE
  5
26B
330
1F
100
AcDbEntity
  8
0
  6
Continuous
 62
     7
100
AcDbLine
 10
126.832364874318
 20
107.265429768843
 30
0.0
 11
126.832364874318
 21
105.7654297688446
 31
0.0
  0
LINE
  5
26C
330
1F
100
AcDbEntity
  8
0
  6
Continuous
 62
     7
100
AcDbLine
 10
126.832364874318
 20
108.9401229611507
 30
0.0
 11
126.832364874318
 21
107.265429768843
 31
0.0
  0
LINE
  5
26D
330
1F
100
AcDbEntity
  8
0
  6
Continuous
 62
     7
100
AcDbLine
 10
120.832364874318
 20
98.26542976884532
 30
0.0
 11
126.832364874318
 21
98.26542976853052
 31
0.0
  0
LINE
  5
26E
330
1F
100
AcDbEntity
  8
0
  6
Continuous
 62
     7
100
AcDbLine
 10
126.832364874318
 20
107.265429768843
 30
0.0
 11
120.832364874318
 21
107.2654297688453
 31
0.0
  0
LINE
  5
26F
330
1F
100
AcDbEntity
  8
0
  6
Continuous
 62
     7
100
AcDbLine
 10
126.832364874318
 20
104.7654297688446
 30
0.0
 11
120.832364874318
 21
104.7654297688453
 31
0.0
  0
LINE
  5
270
330
1F
100
AcDbEntity
  8
0
  6
Continuous
 62
     7
100
AcDbLine
 10
120.832364874318
 20
105.7654297688453
 30
0.0
 11
126.832364874318
 21
105.7654297688446
 31
0.0
  0
LINE
  5
271
330
1F
100
AcDbEntity
  8
0
  6
Continuous
 62
     7
100
AcDbLine
 10
120.832364874318
 20
103.2654297688453
 30
0.0
 11
126.832364874318
 21
103.265429768843
 31
0.0
  0
LINE
  5
272
330
1F
100
AcDbEntity
  8
0
  6
Continuous
 62
     7
100
AcDbLine
 10
126.832364874318
 20
102.265429768843
 30
0.0
 11
120.832364874318
 21
102.2654297688453
 31
0.0
  0
LINE
  5
273
330
1F
100
AcDbEntity
  8
0
  6
Continuous
 62
     7
100
AcDbLine
 10
120.832364874318
 20
100.7654297688453
 30
0.0
 11
126.832364874318
 21
100.7654297688446
 31
0.0
  0
LINE
  5
274
330
1F
100
AcDbEntity
  8
0
  6
Continuous
 62
     7
100
AcDbLine
 10
126.832364874318
 20
98.26542976853052
 30
0.0
 11
126.832364874318
 21
96.01542976884282
 31
0.0
  0
LINE
  5
275
330
1F
100
AcDbEntity
  8
0
  6
Continuous
 62
     7
100
AcDbLine
 10
126.1323648746321
 20
106.4654297691587
 30
0.0
 11
126.832364874318
 21
105.7654297688446
 31
0.0
  0
LINE
  5
276
330
1F
100
AcDbEntity
  8
0
  6
Continuous
 62
     7
100
AcDbLine
 10
126.832364874318
 20
99.7654297691587
 30
0.0
 11
126.832364874318
 21
98.26542976853052
 31
0.0
  0
LINE
  5
277
330
1F
100
AcDbEntity
  8
0
  6
Continuous
 62
     7
100
AcDbLine
 10
126.832364874318
 20
100.7654297688446
 30
0.0
 11
126.832364874318
 21
99.7654297691587
 31
0.0
  0
LINE
  5
278
330
1F
100
AcDbEntity
  8
0
  6
Continuous
 62
     7
100
AcDbLine
 10
126.1323648746321
 20
98.96542976915872
 30
0.0
 11
126.832364874318
 21
98.26542976853052
 31
0.0
  0
LINE
  5
279
330
1F
100
AcDbEntity
  8
0
  6
Continuous
 62
     7
100
AcDbLine
 10
126.1323648746321
 20
101.5654297685305
 30
0.0
 11
126.832364874318
 21
102.265429768843
 31
0.0
  0
LINE
  5
27A
330
1F
100
AcDbEntity
  8
0
  6
Continuous
 62
     7
100
AcDbLine
 10
126.1323648746321
 20
104.0654297685305
 30
0.0
 11
126.832364874318
 21
104.7654297688446
 31
0.0
  0
LINE
  5
27B
330
1F
100
AcDbEntity
  8
0
  6
Continuous
 62
     7
100
AcDbLine
 10
126.1323648746321
 20
103.9654297691587
 30
0.0
 11
126.832364874318
 21
103.265429768843
 31
0.0
  0
LINE
  5
27C
330
1F
100
AcDbEntity
  8
0
  6
Continuous
 62
     7
100
AcDbLine
 10
126.1323648746321
 20
106.5654297685305
 30
0.0
 11
126.832364874318
 21
107.265429768843
 31
0.0
  0
LINE
  5
27D
330
1F
100
AcDbEntity
  8
0
  6
Continuous
 62
     7
100
AcDbLine
 10
115.7698401317619
 20
158.0154297688446
 30
0.0
 11
112.204886137345
 21
158.015429768845
 31
0.0
  0
LINE
  5
27E
330
1F
100
AcDbEntity
  8
0
  6
Continuous
 62
     7
100
AcDbLine
 10
81.45984334021617
 20
158.015429768845
 30
0.0
 11
77.89488961687394
 21
158.0154297688446
 31
0.0
  0
LINE
  5
27F
330
1F
100
AcDbEntity
  8
0
  6
Continuous
 62
     7
100
AcDbLine
 10
81.45984334021617
 20
158.015429768845
 30
0.0
 11
84.33236473878057
 21
158.015429768845
 31
0.0
  0
LINE
  5
280
330
1F
100
AcDbEntity
  8
0
  6
Continuous
 62
     7
100
AcDbLine
 10
67.53236487431795
 20
98.96542976915872
 30
0.0
 11
66.83236487431796
 21
98.26542976884302
 31
0.0
  0
LINE
  5
281
330
1F
100
AcDbEntity
  8
0
  6
Continuous
 62
     7
100
AcDbLine
 10
67.53236487400383
 20
103.9654297691587
 30
0.0
 11
66.83236487431796
 21
103.2654297685305
 31
0.0
  0
LINE
  5
282
330
1F
100
AcDbEntity
  8
0
  6
Continuous
 62
     7
100
AcDbLine
 10
67.53236487400383
 20
101.4654297691587
 30
0.0
 11
66.83236487431796
 21
100.7654297682164
 31
0.0
  0
LINE
  5
283
330
1F
100
AcDbEntity
  8
0
  6
Continuous
 62
     7
100
AcDbLine
 10
67.53236487431795
 20
99.06542976884462
 30
0.0
 11
66.83236487431796
 21
99.76542976884461
 31
0.0
  0
LINE
  5
284
330
1F
100
AcDbEntity
  8
0
  6
Continuous
 62
     7
100
AcDbLine
 10
66.94168577077627
 20
110.0802544005459
 30
0.0
 11
76.06513384289266
 21
157.2180694398139
 31
0.0
  0
LINE
  5
285
330
1F
100
AcDbEntity
  8
0
  6
Continuous
 62
     7
100
AcDbLine
 10
71.11392602027567
 20
117.5154297688452
 30
0.0
 11
77.11392602027567
 21
148.5154297688452
 31
0.0
  0
LINE
  5
286
330
1F
100
AcDbEntity
  8
0
  6
Continuous
 62
     7
100
AcDbLine
 10
72.83236487431796
 20
103.9654297688452
 30
0.0
 11
67.53236487400383
 21
103.9654297691587
 31
0.0
  0
LINE
  5
287
330
1F
100
AcDbEntity
  8
0
  6
Continuous
 62
     7
100
AcDbLine
 10
67.53236487431795
 20
104.0654297685305
 30
0.0
 11
72.83236487431796
 21
104.0654297688452
 31
0.0
  0
LINE
  5
288
330
1F
100
AcDbEntity
  8
0
  6
Continuous
 62
     7
100
AcDbLine
 10
67.53236487431795
 20
104.0654297685305
 30
0.0
 11
67.53236487400383
 21
103.9654297691587
 31
0.0
  0
LINE
  5
289
330
1F
100
AcDbEntity
  8
0
  6
Continuous
 62
     7
100
AcDbLine
 10
72.83236487431796
 20
106.4654297688452
 30
0.0
 11
67.53236487400383
 21
106.4654297691587
 31
0.0
  0
LINE
  5
28A
330
1F
100
AcDbEntity
  8
0
  6
Continuous
 62
     7
100
AcDbLine
 10
67.53236487400383
 20
106.5654297685305
 30
0.0
 11
67.53236487400383
 21
106.4654297691587
 31
0.0
  0
LINE
  5
28B
330
1F
100
AcDbEntity
  8
0
  6
Continuous
 62
     7
100
AcDbLine
 10
66.83236487431796
 20
100.7654297682164
 30
0.0
 11
72.83236487431796
 21
100.7654297688453
 31
0.0
  0
LINE
  5
28C
330
1F
100
AcDbEntity
  8
0
  6
Continuous
 62
     7
100
AcDbLine
 10
66.83236487431796
 20
100.7654297682164
 30
0.0
 11
66.83236487431796
 21
102.2654297694728
 31
0.0
  0
LINE
  5
28D
330
1F
100
AcDbEntity
  8
0
  6
Continuous
 62
     7
100
AcDbLine
 10
66.83236487463208
 20
107.2654297691587
 30
0.0
 11
66.83236487431796
 21
108.9401229611507
 31
0.0
  0
LINE
  5
28E
330
1F
100
AcDbEntity
  8
0
  6
Continuous
 62
     7
100
AcDbLine
 10
72.83236487431796
 20
102.2654297688453
 30
0.0
 11
66.83236487431796
 21
102.2654297694728
 31
0.0
  0
LINE
  5
28F
330
1F
100
AcDbEntity
  8
0
  6
Continuous
 62
     7
100
AcDbLine
 10
72.83236487431796
 20
104.7654297688453
 30
0.0
 11
66.83236487431796
 21
104.765429768843
 31
0.0
  0
LINE
  5
290
330
1F
100
AcDbEntity
  8
0
  6
Continuous
 62
     7
100
AcDbLine
 10
66.83236487431796
 20
103.2654297685305
 30
0.0
 11
72.83236487431796
 21
103.2654297688453
 31
0.0
  0
LINE
  5
291
330
1F
100
AcDbEntity
  8
0
  6
Continuous
 62
     7
100
AcDbLine
 10
72.83236487431796
 20
99.76542976884532
 30
0.0
 11
66.83236487431796
 21
99.76542976884461
 31
0.0
  0
LINE
  5
292
330
1F
100
AcDbEntity
  8
0
  6
Continuous
 62
     7
100
AcDbLine
 10
66.83236487431796
 20
99.76542976884461
 30
0.0
 11
66.83236487431796
 21
100.7654297682164
 31
0.0
  0
LINE
  5
293
330
1F
100
AcDbEntity
  8
0
  6
Continuous
 62
     7
100
AcDbLine
 10
66.83236487431796
 20
98.26542976884302
 30
0.0
 11
66.83236487431796
 21
99.76542976884461
 31
0.0
  0
LINE
  5
294
330
1F
100
AcDbEntity
  8
0
  6
Continuous
 62
     7
100
AcDbLine
 10
66.83236487431796
 20
98.26542976884302
 30
0.0
 11
72.83236487431796
 21
98.26542976884532
 31
0.0
  0
LINE
  5
295
330
1F
100
AcDbEntity
  8
0
  6
Continuous
 62
     7
100
AcDbLine
 10
67.53236487400383
 20
106.4654297691587
 30
0.0
 11
66.83236487431796
 21
105.765429768843
 31
0.0
  0
LINE
  5
296
330
1F
100
AcDbEntity
  8
0
  6
Continuous
 62
     7
100
AcDbLine
 10
66.83236487431796
 20
105.765429768843
 30
0.0
 11
66.83236487463208
 21
107.2654297691587
 31
0.0
  0
LINE
  5
297
330
1F
100
AcDbEntity
  8
0
  6
Continuous
 62
     7
100
AcDbLine
 10
66.83236487431796
 20
103.2654297685305
 30
0.0
 11
66.83236487431796
 21
104.765429768843
 31
0.0
  0
LINE
  5
298
330
1F
100
AcDbEntity
  8
0
  6
Continuous
 62
     7
100
AcDbLine
 10
66.83236487431796
 20
102.2654297694728
 30
0.0
 11
66.83236487431796
 21
103.2654297685305
 31
0.0
  0
LINE
  5
299
330
1F
100
AcDbEntity
  8
0
  6
Continuous
 62
     7
100
AcDbLine
 10
66.83236487431796
 20
104.765429768843
 30
0.0
 11
66.83236487431796
 21
105.765429768843
 31
0.0
  0
LINE
  5
29A
330
1F
100
AcDbEntity
  8
0
  6
Continuous
 62
     7
100
AcDbLine
 10
66.83236487431796
 20
105.765429768843
 30
0.0
 11
72.83236487431796
 21
105.7654297688453
 31
0.0
  0
LINE
  5
29B
330
1F
100
AcDbEntity
  8
0
  6
Continuous
 62
     7
100
AcDbLine
 10
72.83236487431796
 20
107.2654297688453
 30
0.0
 11
66.83236487463208
 21
107.2654297691587
 31
0.0
  0
LINE
  5
29C
330
1F
100
AcDbEntity
  8
0
  6
Continuous
 62
     7
100
AcDbLine
 10
67.53236487400383
 20
106.5654297685305
 30
0.0
 11
66.83236487463208
 21
107.2654297691587
 31
0.0
  0
LINE
  5
29D
330
1F
100
AcDbEntity
  8
0
  6
Continuous
 62
     7
100
AcDbLine
 10
66.83236487431796
 20
86.01542976884461
 30
0.0
 11
72.83236487431796
 21
86.01542976884532
 31
0.0
  0
LINE
  5
29E
330
1F
100
AcDbEntity
  8
0
  6
Continuous
 62
     7
100
AcDbLine
 10
66.83236487431796
 20
86.01542976884461
 30
0.0
 11
66.83236487431796
 21
91.01542976884282
 31
0.0
  0
LINE
  5
2C3
330
1F
100
AcDbEntity
  8
Sichtbare_Kanten_TC_020513_DIN_
  6
Continuous
 62
     7
100
AcDbLine
 10
99.45736487431793
 20
130.4199968763282
 30
0.0
 11
99.45736487431793
 21
135.6108626613622
 31
0.0
  0
LINE
  5
2C4
330
1F
100
AcDbEntity
  8
Sichtbare_Kanten_TC_020513_DIN_
  6
Continuous
 62
     7
100
AcDbLine
 10
102.2697607943758
 20
131.3932542046372
 30
0.0
 11
100.0197607943758
 21
130.0951772815602
 31
0.0
  0
LINE
  5
2C5
330
1F
100
AcDbEntity
  8
Sichtbare_Kanten_TC_020513_DIN_
  6
Continuous
 62
     7
100
AcDbLine
 10
100.2073648743179
 20
131.0692756557462
 30
0.0
 11
101.8949689542588
 21
132.0428933941732
 31
0.0
  0
LINE
  5
2C6
330
1F
100
AcDbEntity
  8
Sichtbare_Kanten_TC_020513_DIN_
  6
Continuous
 62
     7
100
AcDbLine
 10
100.2073648743179
 20
132.6404297688452
 30
0.0
 11
100.2073648743179
 21
131.0692756557462
 31
0.0
  0
LINE
  5
2C7
330
1F
100
AcDbEntity
  8
Sichtbare_Kanten_TC_020513_DIN_
  6
Continuous
 62
     7
100
AcDbLine
 10
102.0823648743179
 20
132.6404297688452
 30
0.0
 11
100.2073648743179
 21
132.6404297688452
 31
0.0
  0
LINE
  5
2C8
330
1F
100
AcDbEntity
  8
Sichtbare_Kanten_TC_020513_DIN_
  6
Continuous
 62
     7
100
AcDbLine
 10
100.2073648743179
 20
133.3904297688452
 30
0.0
 11
102.0823648743179
 21
133.3904297688452
 31
0.0
  0
LINE
  5
2C9
330
1F
100
AcDbEntity
  8
Sichtbare_Kanten_TC_020513_DIN_
  6
Continuous
 62
     7
100
AcDbLine
 10
100.2073648743179
 20
134.9615838819452
 30
0.0
 11
100.2073648743179
 21
133.3904297688452
 31
0.0
  0
LINE
  5
2CA
330
1F
100
AcDbEntity
  8
Sichtbare_Kanten_TC_020513_DIN_
  6
Continuous
 62
     7
100
AcDbLine
 10
101.8949689542588
 20
133.9879661435172
 30
0.0
 11
100.2073648743179
 21
134.9615838819452
 31
0.0
  0
LINE
  5
2CB
330
1F
100
AcDbEntity
  8
Sichtbare_Kanten_TC_020513_DIN_
  6
Continuous
 62
     7
100
AcDbLine
 10
100.0197607943758
 20
135.9356822561302
 30
0.0
 11
102.2697607943758
 21
134.6376053330532
 31
0.0
  0
LINE
  5
2CC
330
1F
100
AcDbEntity
  8
Sichtbare_Kanten_TC_020513_DIN_
  6
Continuous
 62
     7
100
AcDbLine
 10
91.88236487431777
 20
131.3286507224822
 30
0.0
 11
91.88236487431777
 21
134.7022088152082
 31
0.0
  0
LINE
  5
2CD
330
1F
100
AcDbEntity
  8
Sichtbare_Kanten_TC_020513_DIN_
  6
Continuous
 62
     7
100
AcDbLine
 10
92.63236487431777
 20
134.7022088152082
 30
0.0
 11
92.63236487431777
 21
131.3286507224822
 31
0.0
  0
LINE
  5
2CE
330
1F
100
AcDbEntity
  8
Sichtbare_Kanten_TC_020513_DIN_
  6
Continuous
 62
     7
100
AcDbLine
 10
87.83278142530787
 20
133.0154297688452
 30
0.0
 11
96.83236487431793
 21
127.8233623944162
 31
0.0
  0
LINE
  5
2CF
330
1F
100
AcDbEntity
  8
Sichtbare_Kanten_TC_020513_DIN_
  6
Continuous
 62
     7
100
AcDbLine
 10
96.83236487431793
 20
127.8233623944162
 30
0.0
 11
105.8319483233269
 21
133.0154297688452
 31
0.0
  0
LINE
  5
2D0
330
1F
100
AcDbEntity
  8
Sichtbare_Kanten_TC_020513_DIN_
  6
Continuous
 62
     7
100
AcDbLine
 10
105.8319483233269
 20
133.0154297688452
 30
0.0
 11
96.83236487431793
 21
138.2074971432742
 31
0.0
  0
LINE
  5
2D1
330
1F
100
AcDbEntity
  8
Sichtbare_Kanten_TC_020513_DIN_
  6
Continuous
 62
     7
100
AcDbLine
 10
96.83236487431793
 20
138.2074971432742
 30
0.0
 11
87.83278142530787
 21
133.0154297688452
 31
0.0
  0
LINE
  5
2D2
330
1F
100
AcDbEntity
  8
Sichtbare_Kanten_TC_020513_DIN_
  6
Continuous
 62
     7
100
AcDbLine
 10
96.83236487431793
 20
127.3904297688452
 30
0.0
 11
87.08236487431793
 21
133.0154297688452
 31
0.0
  0
LINE
  5
2D3
330
1F
100
AcDbEntity
  8
Sichtbare_Kanten_TC_020513_DIN_
  6
Continuous
 62
     7
100
AcDbLine
 10
106.5823648743179
 20
133.0154297688452
 30
0.0
 11
96.83236487431793
 21
127.3904297688452
 31
0.0
  0
LINE
  5
2D4
330
1F
100
AcDbEntity
  8
Sichtbare_Kanten_TC_020513_DIN_
  6
Continuous
 62
     7
100
AcDbLine
 10
96.83236487431793
 20
138.6404297688452
 30
0.0
 11
106.5823648743179
 21
133.0154297688452
 31
0.0
  0
LINE
  5
2D5
330
1F
100
AcDbEntity
  8
Sichtbare_Kanten_TC_020513_DIN_
  6
Continuous
 62
     7
100
AcDbLine
 10
87.08236487431793
 20
133.0154297688452
 30
0.0
 11
96.83236487431793
 21
138.6404297688452
 31
0.0
  0
LINE
  5
2D6
330
1F
100
AcDbEntity
  8
Sichtbare_Kanten_TC_020513_DIN_
  6
Continuous
 62
     7
100
AcDbLine
 10
93.38236487431777
 20
130.4632661070972
 30
0.0
 11
93.38236487431777
 21
135.5675934305932
 31
0.0
  0
LINE
  5
2D7
330
1F
100
AcDbEntity
  8
Sichtbare_Kanten_TC_020513_DIN_
  6
Continuous
 62
     7
100
AcDbLine
 10
96.64496895425884
 20
128.3644080507912
 30
0.0
 11
93.56996895425891
 21
130.1384465123292
 31
0.0
  0
LINE
  5
2D8
330
1F
100
AcDbEntity
  8
Sichtbare_Kanten_TC_020513_DIN_
  6
Continuous
 62
     7
100
AcDbLine
 10
94.13236487431777
 20
130.6798525788232
 30
0.0
 11
97.01976079437577
 21
129.0140472403272
 31
0.0
  0
LINE
  5
2D9
330
1F
100
AcDbEntity
  8
Sichtbare_Kanten_TC_020513_DIN_
  6
Continuous
 62
     7
100
AcDbLine
 10
94.13236487431777
 20
135.5675934305932
 30
0.0
 11
94.13236487431777
 21
130.6798525788232
 31
0.0
  0
LINE
  5
2DA
330
1F
100
AcDbEntity
  8
Sichtbare_Kanten_TC_020513_DIN_
  6
Continuous
 62
     7
100
AcDbLine
 10
97.95736487431793
 20
135.3190095825312
 30
0.0
 11
96.83236487431793
 21
133.7654297688452
 31
0.0
  0
LINE
  5
2DB
330
1F
100
AcDbEntity
  8
Sichtbare_Kanten_TC_020513_DIN_
  6
Continuous
 62
     7
100
AcDbLine
 10
97.95736487431793
 20
129.5546122609442
 30
0.0
 11
97.95736487431793
 21
135.3190095825312
 31
0.0
  0
LINE
  5
2DC
330
1F
100
AcDbEntity
  8
Sichtbare_Kanten_TC_020513_DIN_
  6
Continuous
 62
     7
100
AcDbLine
 10
98.70736487431793
 20
136.4762472767472
 30
0.0
 11
98.70736487431793
 21
129.5546122609442
 31
0.0
  0
LINE
  5
2DD
330
1F
100
AcDbEntity
  8
Sichtbare_Kanten_TC_020513_DIN_
  6
Continuous
 62
     7
100
AcDbLine
 10
96.83236487431793
 20
135.0441852814862
 30
0.0
 11
98.02863601482693
 21
136.6961876775662
 31
0.0
  0
LINE
  5
2DE
330
1F
100
AcDbEntity
  8
Sichtbare_Kanten_TC_020513_DIN_
  6
Continuous
 62
     7
100
AcDbLine
 10
95.63609373380791
 20
136.6961876775662
 30
0.0
 11
96.83236487431793
 21
135.0441852814862
 31
0.0
  0
LINE
  5
2DF
330
1F
100
AcDbEntity
  8
Sichtbare_Kanten_TC_020513_DIN_
  6
Continuous
 62
     7
100
AcDbLine
 10
94.95736487431793
 20
131.3286507224822
 30
0.0
 11
94.95736487431793
 21
136.4762472767472
 31
0.0
  0
LINE
  5
2E0
330
1F
100
AcDbEntity
  8
Sichtbare_Kanten_TC_020513_DIN_
  6
Continuous
 62
     7
100
AcDbLine
 10
95.70736487431793
 20
135.3190095825312
 30
0.0
 11
95.70736487431793
 21
131.3286507224822
 31
0.0
  0
LINE
  5
2E1
330
1F
100
AcDbEntity
  8
Sichtbare_Kanten_TC_020513_DIN_
  6
Continuous
 62
     7
100
AcDbLine
 10
96.83236487431793
 20
133.7654297688452
 30
0.0
 11
95.70736487431793
 21
135.3190095825312
 31
0.0
  0
ARC
  5
2E2
330
1F
100
AcDbEntity
  8
1
  6
Continuous
 62
     7
100
AcDbCircle
 10
212.2323653482764
 20
93.51542976884282
 30
0.0
 40
2.499999999999925
100
AcDbArc
 50
222.9324617844939
 51
317.2451756972802
  0
ARC
  5
2E3
330
1F
100
AcDbEntity
  8
0
  6
Continuous
 62
     7
100
AcDbCircle
 10
227.5477493817765
 20
78.73915383778562
 30
0.0
 40
7.707540238715692
100
AcDbArc
 50
267.5542690293231
 51
136.2564793500979
  0
ARC
  5
2E4
330
1F
100
AcDbEntity
  8
0
  6
Continuous
 62
     7
100
AcDbCircle
 10
193.2323653482696
 20
155.5154297688407
 30
0.0
 40
2.5
100
AcDbArc
 50
90.00000000000911
 51
173.7293489332459
  0
ARC
  5
2E5
330
1F
100
AcDbEntity
  8
0
  6
Continuous
 62
     7
100
AcDbCircle
 10
231.2323653482696
 20
155.515429768845
 30
0.0
 40
2.499999999999966
100
AcDbArc
 50
6.27075800605508
 51
90.00000000000911
  0
ARC
  5
2E6
330
1F
100
AcDbEntity
  8
0
  6
Continuous
 62
     7
100
AcDbCircle
 10
231.2323653482696
 20
155.515429768845
 30
0.0
 40
2.5
100
AcDbArc
 50
0.00000000000717
 51
6.27075800605508
  0
ARC
  5
2E7
330
1F
100
AcDbEntity
  8
0
  6
Continuous
 62
     7
100
AcDbCircle
 10
193.2323653482696
 20
155.5154297688407
 30
0.0
 40
2.500000000000089
100
AcDbArc
 50
173.7293489332459
 51
180.0213916043937
  0
ARC
  5
2E8
330
1F
100
AcDbEntity
  8
0
  6
Continuous
 62
     7
100
AcDbCircle
 10
212.2323653482764
 20
93.51542976884282
 30
0.0
 40
7.500000000000029
100
AcDbArc
 50
78.46304096718922
 51
101.5369590328202
  0
ARC
  5
2E9
330
1F
100
AcDbEntity
  8
0
  6
Continuous
 62
     7
100
AcDbCircle
 10
212.2323653482764
 20
93.51542976884282
 30
0.0
 40
7.500000000000072
100
AcDbArc
 50
54.20448965357658
 51
78.46304096718922
  0
ARC
  5
2EA
330
1F
100
AcDbEntity
  8
0
  6
Continuous
 62
     7
100
AcDbCircle
 10
212.2323653482764
 20
93.51542976884282
 30
0.0
 40
7.499999999999961
100
AcDbArc
 50
101.5369590328202
 51
270.0888187408925
  0
ARC
  5
2EB
330
1F
100
AcDbEntity
  8
0
  6
Continuous
 62
     7
100
AcDbCircle
 10
206.9613600607804
 20
74.807236289535
 30
0.0
 40
3.500000000000296
100
AcDbArc
 50
59.04059674740858
 51
180.088818740888
  0
ARC
  5
2EC
330
1F
100
AcDbEntity
  8
0
  6
Continuous
 62
     7
100
AcDbCircle
 10
210.2537602193968
 20
79.71234599223682
 30
0.0
 40
2.39999999999948
100
AcDbArc
 50
239.040596747425
 51
340.0888187408881
  0
ARC
  5
2ED
330
1F
100
AcDbEntity
  8
0
  6
Continuous
 62
     7
100
AcDbCircle
 10
212.2323653482764
 20
93.51542976884282
 30
0.0
 40
7.500000000000027
100
AcDbArc
 50
270.0888187408925
 51
274.6465748552949
  0
ARC
  5
2EE
330
1F
100
AcDbEntity
  8
0
  6
Continuous
 62
     7
100
AcDbCircle
 10
212.2323653482764
 20
93.51542976884282
 30
0.0
 40
5.099999999999679
100
AcDbArc
 50
163.5695200309171
 51
197.2654943885639
  0
ARC
  5
2EF
330
1F
100
AcDbEntity
  8
0
  6
Continuous
 62
     7
100
AcDbCircle
 10
206.9731060043191
 20
73.98923563287782
 30
0.0
 40
1.010477882108499
100
AcDbArc
 50
56.27074463942115
 51
180.0888187408839
  0
ARC
  5
2F0
330
1F
100
AcDbEntity
  8
0
  6
Continuous
 62
     7
100
AcDbCircle
 10
207.4649248713608
 20
72.50801414247341
 30
0.0
 40
3.999999999999987
100
AcDbArc
 50
180.0888187408891
 51
270.0888187408932
  0
ARC
  5
2F1
330
1F
100
AcDbEntity
  8
0
  6
Continuous
 62
     7
100
AcDbCircle
 10
207.4649248713619
 20
72.5080141424723
 30
0.0
 40
1.499999999997597
100
AcDbArc
 50
180.0888187408058
 51
270.0888187409697
  0
ARC
  5
2F2
330
1F
100
AcDbEntity
  8
0
  6
Continuous
 62
     7
100
AcDbCircle
 10
212.2323653482764
 20
93.51542976884282
 30
0.0
 40
5.099999999999819
100
AcDbArc
 50
197.2654943885639
 51
0.0888187408861
  0
ARC
  5
2F3
330
1F
100
AcDbEntity
  8
0
  6
Continuous
 62
     7
100
AcDbCircle
 10
212.2323653482764
 20
93.51542976884282
 30
0.0
 40
2.50000000000004
100
AcDbArc
 50
317.2451756972802
 51
222.9324617844939
  0
ARC
  5
2F4
330
1F
100
AcDbEntity
  8
0
  6
Continuous
 62
     7
100
AcDbCircle
 10
212.2323653482764
 20
93.51542976884282
 30
0.0
 40
5.099999999999726
100
AcDbArc
 50
0.0888187408861
 51
163.5695200309171
  0
ARC
  5
2F5
330
1F
100
AcDbEntity
  8
0
  6
Continuous
 62
     7
100
AcDbCircle
 10
212.961447823522
 20
84.5450095588253
 30
0.0
 40
1.49999999999988
100
AcDbArc
 50
340.0888187408866
 51
78.60259912838524
  0
ARC
  5
2F6
330
1F
100
AcDbEntity
  8
0
  6
Continuous
 62
     7
100
AcDbCircle
 10
212.961447823522
 20
84.5450095588253
 30
0.0
 40
1.499999999999993
100
AcDbArc
 50
78.60259912838524
 51
94.64657485529632
  0
ARC
  5
2F7
330
1F
100
AcDbEntity
  8
0
  6
Continuous
 62
     7
100
AcDbCircle
 10
210.2550120508246
 20
78.9048069625198
 30
0.0
 40
4.899999999999475
100
AcDbArc
 50
236.270744639412
 51
316.2564793500983
  0
ARC
  5
2F8
330
1F
100
AcDbEntity
  8
0
  6
Continuous
 62
     7
100
AcDbCircle
 10
240.2602349247076
 20
75.55885640401222
 30
0.0
 40
6.899999999999676
100
AcDbArc
 50
302.0888187408908
 51
310.0888187408914
  0
ARC
  5
2F9
330
1F
100
AcDbEntity
  8
0
  6
Continuous
 62
     7
100
AcDbCircle
 10
238.7656623529523
 20
72.05653534109352
 30
0.0
 40
0.9999999999999258
100
AcDbArc
 50
180.0888187408935
 51
270.0888187409001
  0
ARC
  5
2FA
330
1F
100
AcDbEntity
  8
0
  6
Continuous
 62
     7
100
AcDbCircle
 10
240.2602349247076
 20
75.55885640401222
 30
0.0
 40
6.999999999999766
100
AcDbArc
 50
294.08881874089
 51
302.0888187408911
  0
ARC
  5
2FB
330
1F
100
AcDbEntity
  8
0
  6
Continuous
 62
     7
100
AcDbCircle
 10
240.2602349247076
 20
75.55885640401222
 30
0.0
 40
6.899999999999733
100
AcDbArc
 50
286.0888187408903
 51
294.0888187408902
  0
ARC
  5
2FC
330
1F
100
AcDbEntity
  8
0
  6
Continuous
 62
     7
100
AcDbCircle
 10
240.2602349247076
 20
75.55885640401222
 30
0.0
 40
6.999999999999898
100
AcDbArc
 50
278.0888187408906
 51
286.0888187408901
  0
ARC
  5
2FD
330
1F
100
AcDbEntity
  8
0
  6
Continuous
 62
     7
100
AcDbCircle
 10
240.2602349247072
 20
75.55885640401401
 30
0.0
 40
6.900000000001629
100
AcDbArc
 50
270.0888187408934
 51
278.0888187408902
  0
ARC
  5
2FE
330
1F
100
AcDbEntity
  8
0
  6
Continuous
 62
     7
100
AcDbCircle
 10
240.260234924709
 20
75.55885640401452
 30
0.0
 40
6.899999999997211
100
AcDbArc
 50
54.08881874089531
 51
62.08881874089917
  0
ARC
  5
2FF
330
1F
100
AcDbEntity
  8
0
  6
Continuous
 62
     7
100
AcDbCircle
 10
240.2602349247072
 20
75.55885640401401
 30
0.0
 40
6.999999999998521
100
AcDbArc
 50
62.08881874088785
 51
70.08881874089047
  0
ARC
  5
300
330
1F
100
AcDbEntity
  8
0
  6
Continuous
 62
     7
100
AcDbCircle
 10
240.2602349247072
 20
75.55885640401401
 30
0.0
 40
6.899999999998418
100
AcDbArc
 50
70.08881874088917
 51
78.08881874089101
  0
ARC
  5
301
330
1F
100
AcDbEntity
  8
0
  6
Continuous
 62
     7
100
AcDbCircle
 10
240.2602349247072
 20
75.55885640401401
 30
0.0
 40
6.8999999999984
100
AcDbArc
 50
86.08881874089437
 51
90.08881874089415
  0
ARC
  5
302
330
1F
100
AcDbEntity
  8
0
  6
Continuous
 62
     7
100
AcDbCircle
 10
240.2602349247072
 20
75.55885640401401
 30
0.0
 40
6.999999999998406
100
AcDbArc
 50
78.0888187408909
 51
86.08881874089289
  0
ARC
  5
303
330
1F
100
AcDbEntity
  8
0
  6
Continuous
 62
     7
100
AcDbCircle
 10
238.7548111010359
 20
79.05652693039782
 30
0.0
 40
1.00000000000004
100
AcDbArc
 50
90.08881874090497
 51
180.0888187408821
  0
ARC
  5
304
330
1F
100
AcDbEntity
  8
0
  6
Continuous
 62
     7
100
AcDbCircle
 10
240.2602349247103
 20
75.5588564040135
 30
0.0
 40
4.499999999999766
100
AcDbArc
 50
270.0888187408947
 51
90.08881874089428
  0
ARC
  5
305
330
1F
100
AcDbEntity
  8
0
  6
Continuous
 62
     7
100
AcDbCircle
 10
240.26023492471
 20
75.5588564040117
 30
0.0
 40
6.999999999997597
100
AcDbArc
 50
310.088818740878
 51
318.0888187408815
  0
ARC
  5
306
330
1F
100
AcDbEntity
  8
0
  6
Continuous
 62
     7
100
AcDbCircle
 10
240.260234924709
 20
75.55885640401452
 30
0.0
 40
6.999999999997074
100
AcDbArc
 50
46.08881874089411
 51
54.08881874089595
  0
ARC
  5
307
330
1F
100
AcDbEntity
  8
0
  6
Continuous
 62
     7
100
AcDbCircle
 10
240.2602349247088
 20
75.55885640401111
 30
0.0
 40
6.899999999997931
100
AcDbArc
 50
318.088818740892
 51
326.0888187408949
  0
ARC
  5
308
330
1F
100
AcDbEntity
  8
0
  6
Continuous
 62
     7
100
AcDbCircle
 10
240.260234924709
 20
75.55885640401452
 30
0.0
 40
6.89999999999721
100
AcDbArc
 50
38.08881874088889
 51
46.08881874089319
  0
ARC
  5
309
330
1F
100
AcDbEntity
  8
0
  6
Continuous
 62
     7
100
AcDbCircle
 10
240.2602349247088
 20
75.55885640401111
 30
0.0
 40
6.999999999997891
100
AcDbArc
 50
326.0888187408949
 51
334.0888187408966
  0
ARC
  5
30A
330
1F
100
AcDbEntity
  8
0
  6
Continuous
 62
     7
100
AcDbCircle
 10
240.2602349247103
 20
75.5588564040135
 30
0.0
 40
6.999999999996768
100
AcDbArc
 50
30.08881874089769
 51
38.08881874090253
  0
ARC
  5
30B
330
1F
100
AcDbEntity
  8
0
  6
Continuous
 62
     7
100
AcDbCircle
 10
240.2602349247103
 20
75.5588564040135
 30
0.0
 40
6.899999999997553
100
AcDbArc
 50
336.6012102478389
 51
342.0888187408765
  0
ARC
  5
30C
330
1F
100
AcDbEntity
  8
0
  6
Continuous
 62
     7
100
AcDbCircle
 10
240.26023492471
 20
75.5588564040117
 30
0.0
 40
6.899999999997116
100
AcDbArc
 50
334.0888187408877
 51
336.6012102478535
  0
ARC
  5
30D
330
1F
100
AcDbEntity
  8
0
  6
Continuous
 62
     7
100
AcDbCircle
 10
240.2602349247103
 20
75.5588564040135
 30
0.0
 40
6.899999999996736
100
AcDbArc
 50
24.48498402359885
 51
29.6806645349673
  0
ARC
  5
30E
330
1F
100
AcDbEntity
  8
0
  6
Continuous
 62
     7
100
AcDbCircle
 10
240.2602349247156
 20
75.5588564040042
 30
0.0
 40
6.899999999996713
100
AcDbArc
 50
29.68066453505621
 51
30.08881874098774
  0
ARC
  5
30F
330
1F
100
AcDbEntity
  8
0
  6
Continuous
 62
     7
100
AcDbCircle
 10
240.260234924709
 20
75.55885640401452
 30
0.0
 40
6.899999999997466
100
AcDbArc
 50
22.08881874088352
 51
24.48498402358671
  0
ARC
  5
310
330
1F
100
AcDbEntity
  8
0
  6
Continuous
 62
     7
100
AcDbCircle
 10
240.26023492471
 20
75.5588564040117
 30
0.0
 40
6.999999999997033
100
AcDbArc
 50
342.0888187408913
 51
350.0888187408945
  0
ARC
  5
311
330
1F
100
AcDbEntity
  8
0
  6
Continuous
 62
     7
100
AcDbCircle
 10
240.2602349247103
 20
75.5588564040135
 30
0.0
 40
6.899999999996766
100
AcDbArc
 50
8.00250581154588
 51
14.08881874089106
  0
ARC
  5
312
330
1F
100
AcDbEntity
  8
0
  6
Continuous
 62
     7
100
AcDbCircle
 10
240.260234924709
 20
75.55885640401452
 30
0.0
 40
6.899999999997886
100
AcDbArc
 50
6.08881874087738
 51
8.00250581153599
  0
ARC
  5
313
330
1F
100
AcDbEntity
  8
0
  6
Continuous
 62
     7
100
AcDbCircle
 10
240.2602349247103
 20
75.5588564040135
 30
0.0
 40
6.999999999996754
100
AcDbArc
 50
14.08881874089095
 51
22.08881874089513
  0
ARC
  5
314
330
1F
100
AcDbEntity
  8
0
  6
Continuous
 62
     7
100
AcDbCircle
 10
240.26023492471
 20
75.5588564040117
 30
0.0
 40
6.899999999997029
100
AcDbArc
 50
350.0888187408941
 51
358.088818740898
  0
ARC
  5
315
330
1F
100
AcDbEntity
  8
0
  6
Continuous
 62
     7
100
AcDbCircle
 10
240.2602349247103
 20
75.5588564040135
 30
0.0
 40
6.999999999996858
100
AcDbArc
 50
358.0888187408838
 51
6.08881874088699
  0
ARC
  5
316
330
1F
100
AcDbEntity
  8
0
  6
Continuous
 62
     7
100
AcDbCircle
 10
77.89558135527793
 20
155.5157310966938
 30
0.0
 40
2.499698767862738
100
AcDbArc
 50
90.01585538709341
 51
137.0768028787303
  0
ARC
  5
317
330
1F
100
AcDbEntity
  8
0
  6
Continuous
 62
     7
100
AcDbCircle
 10
120.8323648743181
 20
108.9401229611503
 30
0.0
 40
5.999999999999901
100
AcDbArc
 50
0.00000000000394
 51
10.95406264340295
  0
ARC
  5
318
330
1F
100
AcDbEntity
  8
0
  6
Continuous
 62
     7
100
AcDbCircle
 10
115.7698401317599
 20
155.5154297688438
 30
0.0
 40
2.500000000000842
100
AcDbArc
 50
42.93905441912212
 51
89.99999999995441
  0
ARC
  5
319
330
1F
100
AcDbEntity
  8
0
  6
Continuous
 62
     7
100
AcDbCircle
 10
72.83236487431796
 20
108.9401229611514
 30
0.0
 40
5.99999999999987
100
AcDbArc
 50
169.0459373566079
 51
180.0000000000066
  0
ARC
  5
31A
330
1F
100
AcDbEntity
  8
Sichtbare_Kanten_TC_020513_DIN_
  6
Continuous
 62
     7
100
AcDbCircle
 10
99.83236487431793
 20
130.4199968763282
 30
0.0
 40
0.375
100
AcDbArc
 50
180.0
 51
299.9816393687705
  0
ARC
  5
31B
330
1F
100
AcDbEntity
  8
Sichtbare_Kanten_TC_020513_DIN_
  6
Continuous
 62
     7
100
AcDbCircle
 10
102.0823648743179
 20
131.7180737994052
 30
0.0
 40
0.3749999999994585
100
AcDbArc
 50
299.9816393687742
 51
119.9816393689341
  0
ARC
  5
31C
330
1F
100
AcDbEntity
  8
Sichtbare_Kanten_TC_020513_DIN_
  6
Continuous
 62
     7
100
AcDbCircle
 10
102.0823648743179
 20
133.0154297688452
 30
0.0
 40
0.375
100
AcDbArc
 50
270.0
 51
90.0
  0
ARC
  5
31D
330
1F
100
AcDbEntity
  8
Sichtbare_Kanten_TC_020513_DIN_
  6
Continuous
 62
     7
100
AcDbCircle
 10
102.0823648743179
 20
134.3127857382852
 30
0.0
 40
0.3750000000000621
100
AcDbArc
 50
240.0183606310659
 51
60.01836063122358
  0
ARC
  5
31E
330
1F
100
AcDbEntity
  8
Sichtbare_Kanten_TC_020513_DIN_
  6
Continuous
 62
     7
100
AcDbCircle
 10
99.83236487431793
 20
135.6108626613622
 30
0.0
 40
0.3749999999994443
100
AcDbArc
 50
60.01836063122951
 51
180.0
  0
ARC
  5
31F
330
1F
100
AcDbEntity
  8
Sichtbare_Kanten_TC_020513_DIN_
  6
Continuous
 62
     7
100
AcDbCircle
 10
92.25736487431777
 20
134.7022088152082
 30
0.0
 40
0.375
100
AcDbArc
 50
0.0
 51
180.0
  0
ARC
  5
320
330
1F
100
AcDbEntity
  8
Sichtbare_Kanten_TC_020513_DIN_
  6
Continuous
 62
     7
100
AcDbCircle
 10
92.25736487431777
 20
131.3286507224822
 30
0.0
 40
0.375
100
AcDbArc
 50
180.0
 51
0.0
  0
ARC
  5
321
330
1F
100
AcDbEntity
  8
Sichtbare_Kanten_TC_020513_DIN_
  6
Continuous
 62
     7
100
AcDbCircle
 10
93.75736487431777
 20
130.4632661070972
 30
0.0
 40
0.375
100
AcDbArc
 50
180.0
 51
240.0183606310978
  0
ARC
  5
322
330
1F
100
AcDbEntity
  8
Sichtbare_Kanten_TC_020513_DIN_
  6
Continuous
 62
     7
100
AcDbCircle
 10
96.83236487431793
 20
128.6892276455592
 30
0.0
 40
0.375000000000055
100
AcDbArc
 50
240.0183606310678
 51
60.01836063123111
  0
ARC
  5
323
330
1F
100
AcDbEntity
  8
Sichtbare_Kanten_TC_020513_DIN_
  6
Continuous
 62
     7
100
AcDbCircle
 10
93.75736487431777
 20
135.5675934305932
 30
0.0
 40
0.375
100
AcDbArc
 50
0.0
 51
180.0
  0
ARC
  5
324
330
1F
100
AcDbEntity
  8
Sichtbare_Kanten_TC_020513_DIN_
  6
Continuous
 62
     7
100
AcDbCircle
 10
98.33236487431793
 20
129.5546122609442
 30
0.0
 40
0.375
100
AcDbArc
 50
180.0
 51
0.0
  0
ARC
  5
325
330
1F
100
AcDbEntity
  8
Sichtbare_Kanten_TC_020513_DIN_
  6
Continuous
 62
     7
100
AcDbCircle
 10
98.33236487431793
 20
136.4762472767472
 30
0.0
 40
0.375
100
AcDbArc
 50
0.0
 51
144.0904238230432
  0
ARC
  5
326
330
1F
100
AcDbEntity
  8
Sichtbare_Kanten_TC_020513_DIN_
  6
Continuous
 62
     7
100
AcDbCircle
 10
95.33236487431793
 20
136.4762472767472
 30
0.0
 40
0.3749999999993487
100
AcDbArc
 50
35.90957617704845
 51
180.0
  0
ARC
  5
327
330
1F
100
AcDbEntity
  8
Sichtbare_Kanten_TC_020513_DIN_
  6
Continuous
 62
     7
100
AcDbCircle
 10
95.33236487431793
 20
131.3286507224822
 30
0.0
 40
0.375
100
AcDbArc
 50
180.0
 51
0.0
  0
ARC
  5
328
330
1F
100
AcDbEntity
  8
1
  6
DASHED
 62
     2
100
AcDbCircle
 10
212.2323653482764
 20
93.51542976884282
 30
0.0
 40
40.28663395418571
100
AcDbArc
 50
311.8539719123704
 51
0.0
  0
CIRCLE
  5
329
330
1F
100
AcDbEntity
  8
0
  6
Continuous
 62
     7
100
AcDbCircle
 10
220.7385558506728
 20
89.5286110951403
 30
0.0
 40
3.000000000000147
  0
SPLINE
  5
32A
330
1F
100
AcDbEntity
  8
0
  6
Continuous
 62
     7
100
AcDbSpline
210
0.0
220
0.0
230
1.0
 70
     8
 71
     3
 72
    11
 73
     7
 74
     5
 42
0.000000001
 43
0.0000000001
 44
0.00000001
 40
0.0
 40
0.0
 40
0.0
 40
0.0
 40
0.6330208207532333
 40
1.237419449033237
 40
2.194798157689291
 40
3.054474032526152
 40
3.054474032526152
 40
3.054474032526152
 40
3.054474032526152
 10
126.832364874318
 20
85.5703599185566
 30
0.0
 10
127.0350406942316
 20
85.63239837978767
 30
0.0
 10
127.4312282919964
 20
85.75367023145672
 30
0.0
 10
128.063297491692
 20
86.12230739135865
 30
0.0
 10
128.6782410552713
 20
86.71330811353752
 30
0.0
 10
128.782865487404
 20
87.32352539207957
 30
0.0
 10
128.832364874318
 20
87.6122283740056
 30
0.0
 11
126.832364874318
 21
85.5703599185566
 31
0.0
 11
127.4299690654798
 21
85.77912914644934
 31
0.0
 11
127.9536852178776
 21
86.08082285896417
 31
0.0
 11
128.6039950446988
 21
86.78344020145667
 31
0.0
 11
128.832364874318
 21
87.6122283740056
 31
0.0
  0
SPLINE
  5
32B
330
1F
100
AcDbEntity
  8
0
  6
Continuous
 62
     7
100
AcDbSpline
210
0.0
220
0.0
230
1.0
 70
     8
 71
     3
 72
     9
 73
     5
 74
     3
 42
0.000000001
 43
0.0000000001
 44
0.00000001
 40
0.0
 40
0.0
 40
0.0
 40
0.0
 40
0.4989832121704432
 40
1.009599233151074
 40
1.009599233151074
 40
1.009599233151074
 40
1.009599233151074
 10
66.83236487431796
 20
85.57035991855656
 30
0.0
 10
66.99518392637434
 20
85.53448543648058
 30
0.0
 10
67.32461783844408
 20
85.46190014927397
 30
0.0
 10
67.66182075474778
 20
85.45166862307249
 30
0.0
 10
67.83236487431796
 20
85.4464939251411
 30
0.0
 11
66.83236487431796
 21
85.57035991855656
 31
0.0
 11
67.32271978319557
 21
85.47796776527133
 31
0.0
 11
67.83236487431796
 21
85.4464939251411
 31
0.0
  0
SPLINE
  5
32C
330
1F
100
AcDbEntity
  8
0
  6
Continuous
 62
     7
100
AcDbSpline
210
0.0
220
0.0
230
1.0
 70
     8
 71
     3
 72
    11
 73
     7
 74
     5
 42
0.000000001
 43
0.0000000001
 44
0.00000001
 40
0.0
 40
0.0
 40
0.0
 40
0.0
 40
2.073645509662046
 40
4.331610681962599
 40
6.588816558745061
 40
8.660246452349588
 40
8.660246452349588
 40
8.660246452349588
 40
8.660246452349588
 10
94.14768612258646
 20
71.81783957719112
 30
0.0
 10
93.8022897097882
 20
72.41657134808457
 30
0.0
 10
93.08079569745156
 20
73.66725421858614
 30
0.0
 10
91.98279631380552
 20
75.56936067120368
 30
0.0
 10
90.88489097107576
 20
77.47066862727067
 30
0.0
 10
90.16300917876188
 20
78.71998256814345
 30
0.0
 10
89.81755910366323
 20
79.31783056573131
 30
0.0
 11
94.14768612258646
 21
71.81783957719112
 31
0.0
 11
93.11141638728475
 21
73.61398843946345
 31
0.0
 11
91.98262261312519
 21
75.56955263803931
 31
0.0
 11
90.85382883896544
 21
77.52424007740402
 31
0.0
 11
89.81755910366323
 21
79.31783056573131
 31
0.0
  0
SPLINE
  5
32D
330
1F
100
AcDbEntity
  8
0
  6
Continuous
 62
     7
100
AcDbSpline
210
0.0
220
0.0
230
1.0
 70
     8
 71
     3
 72
     9
 73
     5
 74
     3
 42
0.000000001
 43
0.0000000001
 44
0.00000001
 40
0.0
 40
0.0
 40
0.0
 40
0.0
 40
3.883844770750671
 40
7.62035645236363
 40
7.62035645236363
 40
7.62035645236363
 40
7.62035645236363
 10
103.8471706449726
 20
72.71860100964041
 30
0.0
 10
103.2000947275487
 20
73.83990410035267
 30
0.0
 10
101.9304896066278
 20
76.03997380135206
 30
0.0
 10
100.6597462070073
 20
78.23938623505134
 30
0.0
 10
100.03665886832
 20
79.31783056573151
 30
0.0
 11
103.8471706449726
 21
72.71860100964041
 31
0.0
 11
101.9056472038253
 21
76.08233954448168
 31
0.0
 11
100.03665886832
 21
79.31783056573151
 31
0.0
  0
SPLINE
  5
32E
330
1F
100
AcDbEntity
  8
0
  6
Continuous
 62
     7
100
AcDbSpline
210
0.0
220
0.0
230
1.0
 70
     8
 71
     3
 72
     9
 73
     5
 74
     3
 42
0.000000001
 43
0.0000000001
 44
0.00000001
 40
0.0
 40
0.0
 40
0.0
 40
0.0
 40
3.214961895630997
 40
6.638432426735058
 40
6.638432426735058
 40
6.638432426735058
 40
6.638432426735058
 10
96.97670244161455
 20
79.317830565731
 30
0.0
 10
96.44057427473221
 20
78.38992494475735
 30
0.0
 10
95.33354698553784
 20
76.47393371519298
 30
0.0
 10
94.22738913960242
 20
74.55744039633761
 30
0.0
 10
93.656938393775
 20
73.5690958576471
 30
0.0
 11
96.97670244161455
 21
79.317830565731
 31
0.0
 11
95.36852187004024
 21
76.53399593709734
 31
0.0
 11
93.656938393775
 21
73.5690958576471
 31
0.0
  0
SPLINE
  5
32F
330
1F
100
AcDbEntity
  8
0
  6
Continuous
 62
     7
100
AcDbSpline
210
0.0
220
0.0
230
1.0
 70
     8
 71
     3
 72
     9
 73
     5
 74
     3
 42
0.000000001
 43
0.0000000001
 44
0.00000001
 40
0.0
 40
0.0
 40
0.0
 40
0.0
 40
2.617204240783741
 40
5.425779154885936
 40
5.425779154885936
 40
5.425779154885936
 40
5.425779154885936
 10
101.1336243797803
 20
79.31856095685892
 30
0.0
 10
101.5700666284368
 20
78.5631786676543
 30
0.0
 10
102.4748638822348
 20
76.99718032442865
 30
0.0
 10
103.3791040222252
 20
75.43086022446126
 30
0.0
 10
103.847170644972
 20
74.62007761743492
 30
0.0
 11
101.1336243797803
 21
79.31856095685892
 31
0.0
 11
102.4428214908429
 21
77.05233921961255
 31
0.0
 11
103.847170644972
 21
74.62007761743492
 31
0.0
  0
SPLINE
  5
330
330
1F
100
AcDbEntity
  8
0
  6
Continuous
 62
     7
100
AcDbSpline
210
0.0
220
0.0
230
1.0
 70
     8
 71
     3
 72
     9
 73
     5
 74
     3
 42
0.000000001
 43
0.0000000001
 44
0.00000001
 40
0.0
 40
0.0
 40
0.0
 40
0.0
 40
1.063635199555769
 40
2.192857146801778
 40
2.192857146801778
 40
2.192857146801778
 40
2.192857146801778
 10
102.7502051335116
 20
79.31856095685872
 30
0.0
 10
102.9275905854717
 20
79.01158114302244
 30
0.0
 10
103.2932995595599
 20
78.37869226380185
 30
0.0
 10
103.658901989015
 20
77.7457418305947
 30
0.0
 10
103.8471706449719
 20
77.4198010674008
 30
0.0
 11
102.7502051335116
 21
79.31856095685872
 31
0.0
 11
103.2823364145862
 21
78.39760702889212
 31
0.0
 11
103.8471706449719
 21
77.4198010674008
 31
0.0
  0
SPLINE
  5
331
330
1F
100
AcDbEntity
  8
0
  6
Continuous
 62
     7
100
AcDbSpline
210
0.0
220
0.0
230
1.0
 70
     8
 71
     3
 72
     9
 73
     5
 74
     3
 42
0.000000001
 43
0.0000000001
 44
0.00000001
 40
0.0
 40
0.0
 40
0.0
 40
0.0
 40
2.287251095861538
 40
4.386370988184698
 40
4.386370988184698
 40
4.386370988184698
 40
4.386370988184698
 10
103.847170644972
 20
75.519552417284
 30
0.0
 10
103.4659369484065
 20
76.17981040319495
 30
0.0
 10
102.7348268096707
 20
77.44601875978358
 30
0.0
 10
102.0033104584864
 20
78.71199248070411
 30
0.0
 10
101.653239622051
 20
79.31783056573191
 30
0.0
 11
103.847170644972
 21
75.519552417284
 31
0.0
 11
102.7033590947015
 21
77.50026257098959
 31
0.0
 11
101.653239622051
 21
79.31783056573191
 31
0.0
  0
SPLINE
  5
332
330
1F
100
AcDbEntity
  8
0
  6
Continuous
 62
     7
100
AcDbSpline
210
0.0
220
0.0
230
1.0
 70
     8
 71
     3
 72
     9
 73
     5
 74
     3
 42
0.000000001
 43
0.0000000001
 44
0.00000001
 40
0.0
 40
0.0
 40
0.0
 40
0.0
 40
0.5184362756746138
 40
1.050656240340425
 40
1.050656240340425
 40
1.050656240340425
 40
1.050656240340425
 10
94.89824147253259
 20
78.4185941609304
 30
0.0
 10
94.81179198116796
 20
78.26895959081587
 30
0.0
 10
94.63659457917561
 20
77.9657120994158
 30
0.0
 10
94.46142164073856
 20
77.66245047581636
 30
0.0
 10
94.37268612258615
 20
77.5088303955991
 30
0.0
 11
94.89824147253259
 21
78.4185941609304
 31
0.0
 11
94.63889896334447
 21
77.96968700475703
 31
0.0
 11
94.37268612258615
 21
77.5088303955991
 31
0.0
  0
SPLINE
  5
333
330
1F
100
AcDbEntity
  8
0
  6
Continuous
 62
     7
100
AcDbSpline
210
0.0
220
0.0
230
1.0
 70
     8
 71
     3
 72
     9
 73
     5
 74
     3
 42
0.000000001
 43
0.0000000001
 44
0.00000001
 40
0.0
 40
0.0
 40
0.0
 40
0.0
 40
0.5190397654300875
 40
1.039273448043184
 40
1.039273448043184
 40
1.039273448043184
 40
1.039273448043184
 10
101.5666370816728
 20
74.86949829417041
 30
0.0
 10
101.4801389662965
 20
75.01933708257201
 30
0.0
 10
101.3069437516059
 20
75.31935931488326
 30
0.0
 10
101.1337288123491
 20
75.61937015983922
 30
0.0
 10
101.0470218394022
 20
75.7695479035187
 30
0.0
 11
101.5666370816728
 21
74.86949829417041
 31
0.0
 11
101.307137807085
 21
75.31901181408537
 31
0.0
 11
101.0470218394022
 21
75.7695479035187
 31
0.0
  0
SPLINE
  5
334
330
1F
100
AcDbEntity
  8
0
  6
Continuous
 62
     7
100
AcDbSpline
210
0.0
220
0.0
230
1.0
 70
     8
 71
     3
 72
     9
 73
     5
 74
     3
 42
0.000000001
 43
0.0000000001
 44
0.00000001
 40
0.0
 40
0.0
 40
0.0
 40
0.0
 40
0.8516331239814227
 40
1.700040226142171
 40
1.700040226142171
 40
1.700040226142171
 40
1.700040226142171
 10
96.83236487431796
 20
75.56955263803992
 30
0.0
 10
96.58652095664561
 20
75.42761137806569
 30
0.0
 10
96.09576439832321
 20
75.14426652021444
 30
0.0
 10
95.60502551021281
 20
74.86089105955728
 30
0.0
 10
95.36012168788429
 20
74.7194721893464
 30
0.0
 11
96.83236487431796
 21
75.56955263803992
 31
0.0
 11
96.09483756065474
 21
75.14372116965903
 31
0.0
 11
95.36012168788429
 21
74.7194721893464
 31
0.0
  0
SPLINE
  5
335
330
1F
100
AcDbEntity
  8
0
  6
Continuous
 62
     7
100
AcDbSpline
210
0.0
220
0.0
230
1.0
 70
     8
 71
     3
 72
     9
 73
     5
 74
     3
 42
0.000000001
 43
0.0000000001
 44
0.00000001
 40
0.0
 40
0.0
 40
0.0
 40
0.0
 40
1.878657239191839
 40
3.752822180938054
 40
3.752822180938054
 40
3.752822180938054
 40
3.752822180938054
 10
98.70875324918413
 20
77.119277405169
 30
0.0
 10
98.39558229873603
 20
76.5769912309306
 30
0.0
 10
97.7699892782476
 20
75.49371560223686
 30
0.0
 10
97.14465681947361
 20
74.41028954062811
 30
0.0
 10
96.83236487431807
 20
73.86922495976542
 30
0.0
 11
98.70875324918413
 21
77.119277405169
 31
0.0
 11
97.76930570299443
 21
75.49238117912104
 31
0.0
 11
96.83236487431807
 21
73.86922495976542
 31
0.0
  0
SPLINE
  5
336
330
1F
100
AcDbEntity
  8
0
  6
Continuous
 62
     7
100
AcDbSpline
210
0.0
220
0.0
230
1.0
 70
     8
 71
     3
 72
     9
 73
     5
 74
     3
 42
0.000000001
 43
0.0000000001
 44
0.00000001
 40
0.0
 40
0.0
 40
0.0
 40
0.0
 40
2.750473663467788
 40
5.310833412214427
 40
5.310833412214427
 40
5.310833412214427
 40
5.310833412214427
 10
95.36012168788429
 20
74.7194721893464
 30
0.0
 10
95.81841558072064
 20
75.5135338991873
 30
0.0
 10
96.70332591406334
 20
77.04677142421974
 30
0.0
 10
97.58896510369763
 20
78.57958805498666
 30
0.0
 10
98.01593292615584
 20
79.31856095685832
 30
0.0
 11
95.36012168788429
 21
74.7194721893464
 31
0.0
 11
96.73519886884091
 21
77.10154442163723
 31
0.0
 11
98.01593292615584
 21
79.31856095685832
 31
0.0
  0
SPLINE
  5
337
330
1F
100
AcDbEntity
  8
0
  6
Continuous
 62
     7
100
AcDbSpline
210
0.0
220
0.0
230
1.0
 70
     8
 71
     3
 72
     9
 73
     5
 74
     3
 42
0.000000001
 43
0.0000000001
 44
0.00000001
 40
0.0
 40
0.0
 40
0.0
 40
0.0
 40
0.4534344700081541
 40
0.923184594246405
 40
0.923184594246405
 40
0.923184594246405
 40
0.923184594246405
 10
98.93969335685946
 20
79.21792917269472
 30
0.0
 10
98.86406818474285
 20
79.08706439138871
 30
0.0
 10
98.71009668367986
 20
78.82062599166201
 30
0.0
 10
98.55614790709944
 20
78.55417446101923
 30
0.0
 10
98.47781314150816
 20
78.41859416093102
 30
0.0
 11
98.93969335685946
 21
79.21792917269472
 31
0.0
 11
98.71282333095473
 21
78.82533165622547
 31
0.0
 11
98.47781314150816
 21
78.41859416093102
 31
0.0
  0
SPLINE
  5
338
330
1F
100
AcDbEntity
  8
0
  6
Continuous
 62
     7
100
AcDbSpline
210
0.0
220
0.0
230
1.0
 70
     8
 71
     3
 72
     9
 73
     5
 74
     3
 42
0.000000001
 43
0.0000000001
 44
0.00000001
 40
0.0
 40
0.0
 40
0.0
 40
0.0
 40
1.799663978824714
 40
3.462737625281735
 40
3.462737625281735
 40
3.462737625281735
 40
3.462737625281735
 10
100.7872142182668
 20
76.2195042910992
 30
0.0
 10
100.4872191023587
 20
76.73899301868427
 30
0.0
 10
99.9099977884384
 20
77.73854247127856
 30
0.0
 10
99.33251512717415
 20
78.73794095445075
 30
0.0
 10
99.05516341069753
 20
79.21792917269552
 30
0.0
 11
100.7872142182668
 21
76.2195042910992
 31
0.0
 11
99.88715826815074
 21
77.77792968980874
 31
0.0
 11
99.05516341069753
 21
79.21792917269552
 31
0.0
  0
SPLINE
  5
339
330
1F
100
AcDbEntity
  8
0
  6
Continuous
 62
     7
100
AcDbSpline
210
0.0
220
0.0
230
1.0
 70
     8
 71
     3
 72
     9
 73
     5
 74
     3
 42
0.000000001
 43
0.0000000001
 44
0.00000001
 40
0.0
 40
0.0
 40
0.0
 40
0.0
 40
1.244344824956527
 40
2.539013872005215
 40
2.539013872005215
 40
2.539013872005215
 40
2.539013872005215
 10
98.47781314150816
 20
78.41859416093102
 30
0.0
 10
98.68539832098217
 20
78.05949503654097
 30
0.0
 10
99.10896389394895
 20
77.3267739672507
 30
0.0
 10
99.53218101815227
 20
76.59385157924811
 30
0.0
 10
99.74798373372548
 20
76.22012697968792
 30
0.0
 11
98.47781314150816
 21
78.41859416093102
 31
0.0
 11
99.10048497838984
 21
77.3412484286081
 31
0.0
 11
99.74798373372548
 21
76.22012697968792
 31
0.0
  0
SPLINE
  5
33A
330
1F
100
AcDbEntity
  8
0
  6
Continuous
 62
     7
100
AcDbSpline
210
0.0
220
0.0
230
1.0
 70
     8
 71
     3
 72
     9
 73
     5
 74
     3
 42
0.000000001
 43
0.0000000001
 44
0.00000001
 40
0.0
 40
0.0
 40
0.0
 40
0.0
 40
0.5223180537249845
 40
1.039034002024538
 40
1.039034002024538
 40
1.039034002024538
 40
1.039034002024538
 10
99.22836849145486
 20
76.21950429109891
 30
0.0
 10
99.14130416513028
 20
76.37027799097176
 30
0.0
 10
98.96810930078274
 20
76.67020826226428
 30
0.0
 10
98.79489396676571
 20
76.97012671240417
 30
0.0
 10
98.70875324918413
 20
77.119277405169
 30
0.0
 11
99.22836849145486
 21
76.21950429109891
 31
0.0
 11
98.96717033097866
 21
76.67182239842067
 31
0.0
 11
98.70875324918413
 21
77.119277405169
 31
0.0
  0
SPLINE
  5
33B
330
1F
100
AcDbEntity
  8
0
  6
Continuous
 62
     7
100
AcDbSpline
210
0.0
220
0.0
230
1.0
 70
     8
 71
     3
 72
     9
 73
     5
 74
     3
 42
0.000000001
 43
0.0000000001
 44
0.00000001
 40
0.0
 40
0.0
 40
0.0
 40
0.0
 40
1.082714722525056
 40
2.191410465566772
 40
2.191410465566772
 40
2.191410465566772
 40
2.191410465566772
 10
94.03476961012657
 20
72.9149784065125
 30
0.0
 10
94.34727807051983
 20
73.09550766890231
 30
0.0
 10
94.97979401148672
 20
73.46089818956136
 30
0.0
 10
95.61234145540388
 20
73.82623417105552
 30
0.0
 10
95.93236487431804
 20
74.0110678362329
 30
0.0
 11
94.03476961012657
 21
72.9149784065125
 31
0.0
 11
94.97230268628866
 21
73.45655287182194
 31
0.0
 11
95.93236487431804
 21
74.0110678362329
 31
0.0
  0
SPLINE
  5
33C
330
1F
100
AcDbEntity
  8
0
  6
Continuous
 62
     7
100
AcDbSpline
210
0.0
220
0.0
230
1.0
 70
     8
 71
     3
 72
     9
 73
     5
 74
     3
 42
0.000000001
 43
0.0000000001
 44
0.00000001
 40
0.0
 40
0.0
 40
0.0
 40
0.0
 40
0.3804894716565394
 40
0.7553979957912749
 40
0.7553979957912749
 40
0.7553979957912749
 40
0.7553979957912749
 10
93.656938393775
 20
73.5690958576471
 30
0.0
 10
93.72043059573193
 20
73.4593026575055
 30
0.0
 10
93.84648369073238
 20
73.24132667308501
 30
0.0
 10
93.97231753326324
 20
73.02322404481257
 30
0.0
 10
94.03476961012657
 20
72.9149784065125
 30
0.0
 11
93.656938393775
 21
73.5690958576471
 31
0.0
 11
93.84735936482161
 21
73.2396841216241
 31
0.0
 11
94.03476961012657
 21
72.9149784065125
 31
0.0
  0
SPLINE
  5
33D
330
1F
100
AcDbEntity
  8
0
  6
Continuous
 62
     7
100
AcDbSpline
210
0.0
220
0.0
230
1.0
 70
     8
 71
     3
 72
     9
 73
     5
 74
     3
 42
0.000000001
 43
0.0000000001
 44
0.00000001
 40
0.0
 40
0.0
 40
0.0
 40
0.0
 40
3.873028139890599
 40
7.621630972174836
 40
7.621630972174836
 40
7.621630972174836
 40
7.621630972174836
 10
89.81755910366414
 20
78.4192712310391
 30
0.0
 10
90.46328187955899
 20
77.30135022698163
 30
0.0
 10
91.73398285650518
 20
75.10142265610867
 30
0.0
 10
93.00361725976512
 20
72.90087936780365
 30
0.0
 10
93.62807088031579
 20
71.8185699683185
 30
0.0
 11
89.81755910366414
 21
78.4192712310391
 31
0.0
 11
91.75445200185501
 21
75.06534921743553
 31
0.0
 11
93.62807088031579
 21
71.8185699683185
 31
0.0
  0
SPLINE
  5
33E
330
1F
100
AcDbEntity
  8
0
  6
Continuous
 62
     7
100
AcDbSpline
210
0.0
220
0.0
230
1.0
 70
     8
 71
     3
 72
     9
 73
     5
 74
     3
 42
0.000000001
 43
0.0000000001
 44
0.00000001
 40
0.0
 40
0.0
 40
0.0
 40
0.0
 40
2.606448781743995
 40
5.428486982193975
 40
5.428486982193975
 40
5.428486982193975
 40
5.428486982193975
 10
92.53110536885524
 20
71.81783957719112
 30
0.0
 10
92.09695402418771
 20
72.57040473653754
 30
0.0
 10
91.19274098744623
 20
74.13778260840796
 30
0.0
 10
90.2879310826167
 20
75.70481600034678
 30
0.0
 10
89.81755910366402
 20
76.51944963208932
 30
0.0
 11
92.53110536885524
 21
71.81783957719112
 31
0.0
 11
91.22851372662615
 21
74.075455635217
 31
0.0
 11
89.81755910366402
 21
76.51944963208932
 31
0.0
  0
SPLINE
  5
33F
330
1F
100
AcDbEntity
  8
0
  6
Continuous
 62
     7
100
AcDbSpline
210
0.0
220
0.0
230
1.0
 70
     8
 71
     3
 72
     9
 73
     5
 74
     3
 42
0.000000001
 43
0.0000000001
 44
0.00000001
 40
0.0
 40
0.0
 40
0.0
 40
0.0
 40
2.276532513135561
 40
4.389249873266252
 40
4.389249873266252
 40
4.389249873266252
 40
4.389249873266252
 10
89.81755910366402
 20
75.6201723840562
 30
0.0
 10
90.19695779955056
 20
74.96298054532801
 30
0.0
 10
90.92845433155256
 20
73.695887191292
 30
0.0
 10
91.65957379003265
 20
72.42857622738175
 30
0.0
 10
92.01149012658456
 20
71.8185699683185
 30
0.0
 11
89.81755910366402
 21
75.6201723840562
 31
0.0
 11
90.95565374575168
 21
73.64853832343054
 31
0.0
 11
92.01149012658456
 21
71.8185699683185
 31
0.0
  0
SPLINE
  5
340
330
1F
100
AcDbEntity
  8
0
  6
Continuous
 62
     7
100
AcDbSpline
210
0.0
220
0.0
230
1.0
 70
     8
 71
     3
 72
     9
 73
     5
 74
     3
 42
0.000000001
 43
0.0000000001
 44
0.00000001
 40
0.0
 40
0.0
 40
0.0
 40
0.0
 40
0.5887814739755318
 40
1.156002261252954
 40
1.156002261252954
 40
1.156002261252954
 40
1.156002261252954
 10
89.81755910366402
 20
72.81934234492242
 30
0.0
 10
89.91564851613343
 20
72.64935219422006
 30
0.0
 10
90.10823537123503
 20
72.31559678041546
 30
0.0
 10
90.30054698419156
 20
71.98168269581224
 30
0.0
 10
90.39490937285424
 20
71.81783957719001
 30
0.0
 11
89.81755910366402
 21
72.81934234492242
 31
0.0
 11
90.11175593082679
 21
72.30933072643965
 31
0.0
 11
90.39490937285424
 21
71.81783957719001
 31
0.0
  0
SPLINE
  5
341
330
1F
100
AcDbEntity
  8
0
  6
Continuous
 62
     7
100
AcDbSpline
210
0.0
220
0.0
230
1.0
 70
     8
 71
     3
 72
     9
 73
     5
 74
     3
 42
0.000000001
 43
0.0000000001
 44
0.00000001
 40
0.0
 40
0.0
 40
0.0
 40
0.0
 40
1.060138741418948
 40
2.195077448905316
 40
2.195077448905316
 40
2.195077448905316
 40
2.195077448905316
 10
90.91452461512486
 20
71.81783957719121
 30
0.0
 10
90.73795557149636
 20
72.1239449533122
 30
0.0
 10
90.37235932537482
 20
72.75775350237527
 30
0.0
 10
90.00664655449138
 20
73.39149482299584
 30
0.0
 10
89.81755910366437
 20
73.7191632359292
 30
0.0
 11
90.91452461512486
 21
71.81783957719121
 31
0.0
 11
90.38479029649316
 21
72.73614001970579
 31
0.0
 11
89.81755910366437
 21
73.7191632359292
 31
0.0
  0
SPLINE
  5
342
330
1F
100
AcDbEntity
  8
0
  6
Continuous
 62
     7
100
AcDbSpline
210
0.0
220
0.0
230
1.0
 70
     8
 71
     3
 72
     9
 73
     5
 74
     3
 42
0.000000001
 43
0.0000000001
 44
0.00000001
 40
0.0
 40
0.0
 40
0.0
 40
0.0
 40
1.276174998963141
 40
2.540523435350925
 40
2.540523435350925
 40
2.540523435350925
 40
2.540523435350925
 10
92.12696018042257
 20
76.22012697968692
 30
0.0
 10
92.33966898137037
 20
75.85173447654657
 30
0.0
 10
92.76311535200736
 20
75.11836342543074
 30
0.0
 10
93.18644920152677
 20
74.38492741646661
 30
0.0
 10
93.39713077263988
 20
74.01991654080881
 30
0.0
 11
92.12696018042257
 21
76.22012697968692
 31
0.0
 11
92.76505818173342
 21
75.11493307421016
 31
0.0
 11
93.39713077263988
 21
74.01991654080881
 31
0.0
  0
SPLINE
  5
343
330
1F
100
AcDbEntity
  8
0
  6
Continuous
 62
     7
100
AcDbSpline
210
0.0
220
0.0
230
1.0
 70
     8
 71
     3
 72
     9
 73
     5
 74
     3
 42
0.000000001
 43
0.0000000001
 44
0.00000001
 40
0.0
 40
0.0
 40
0.0
 40
0.0
 40
0.5236755788071022
 40
1.050983930409477
 40
1.050983930409477
 40
1.050983930409477
 40
1.050983930409477
 10
93.92268612258616
 20
76.72968749887012
 30
0.0
 10
93.83539121907843
 20
76.57852441166288
 30
0.0
 10
93.66019585875193
 20
76.27514959871976
 30
0.0
 10
93.48502096216274
 20
75.97176296913011
 30
0.0
 10
93.39713077263954
 20
75.81954531461422
 30
0.0
 11
93.92268612258616
 21
76.72968749887012
 31
0.0
 11
93.66080650129156
 21
76.27619529850743
 31
0.0
 11
93.39713077263954
 21
75.81954531461422
 31
0.0
  0
SPLINE
  5
344
330
1F
100
AcDbEntity
  8
0
  6
Continuous
 62
     7
100
AcDbSpline
210
0.0
220
0.0
230
1.0
 70
     8
 71
     3
 72
     9
 73
     5
 74
     3
 42
0.000000001
 43
0.0000000001
 44
0.00000001
 40
0.0
 40
0.0
 40
0.0
 40
0.0
 40
0.5166485468881731
 40
1.038494839193352
 40
1.038494839193352
 40
1.038494839193352
 40
1.038494839193352
 10
92.64657542269308
 20
77.119277405168
 30
0.0
 10
92.56045127613726
 20
76.97014308213156
 30
0.0
 10
92.3873365132794
 20
76.67037407942479
 30
0.0
 10
92.21404141554393
 20
76.37070929124242
 30
0.0
 10
92.12696018042257
 20
76.22012697968692
 30
0.0
 11
92.64657542269308
 21
77.119277405168
 31
0.0
 11
92.38815834089873
 21
76.67190023449362
 31
0.0
 11
92.12696018042257
 21
76.22012697968692
 31
0.0
  0
SPLINE
  5
345
330
1F
100
AcDbEntity
  8
0
  6
Continuous
 62
     7
100
AcDbSpline
210
0.0
220
0.0
230
1.0
 70
     8
 71
     3
 72
     9
 73
     5
 74
     3
 42
0.000000001
 43
0.0000000001
 44
0.00000001
 40
0.0
 40
0.0
 40
0.0
 40
0.0
 40
0.7552046148230886
 40
1.500878690278072
 40
1.500878690278072
 40
1.500878690278072
 40
1.500878690278072
 10
93.39713077263954
 20
75.81954531461422
 30
0.0
 10
93.27125449580834
 20
76.03754900403011
 30
0.0
 10
93.02109045962555
 20
76.47080520754213
 30
0.0
 10
92.77088417300759
 20
76.90403701271421
 30
0.0
 10
92.64657542269308
 20
77.119277405168
 30
0.0
 11
93.39713077263954
 21
75.81954531461422
 31
0.0
 11
93.019491236196
 21
76.47355020050215
 31
0.0
 11
92.64657542269308
 21
77.119277405168
 31
0.0
  0
SPLINE
  5
346
330
1F
100
AcDbEntity
  8
0
  6
Continuous
 62
     7
100
AcDbSpline
210
0.0
220
0.0
230
1.0
 70
     8
 71
     3
 72
     9
 73
     5
 74
     3
 42
0.000000001
 43
0.0000000001
 44
0.00000001
 40
0.0
 40
0.0
 40
0.0
 40
0.0
 40
3.155832298370667
 40
6.118738973725804
 40
6.118738973725804
 40
6.118738973725804
 40
6.118738973725804
 10
93.39713077263988
 20
74.01991654080881
 30
0.0
 10
93.92302582323002
 20
74.93097131907781
 30
0.0
 10
94.94266637843637
 20
76.6973853171471
 30
0.0
 10
95.96300410203848
 20
78.46339669802191
 30
0.0
 10
96.45708719934393
 20
79.3185609568582
 30
0.0
 11
93.39713077263988
 21
74.01991654080881
 31
0.0
 11
94.9750013899689
 21
76.75297376860657
 31
0.0
 11
96.45708719934393
 21
79.3185609568582
 31
0.0
  0
SPLINE
  5
347
330
1F
100
AcDbEntity
  8
0
  6
Continuous
 62
     7
100
AcDbSpline
210
0.0
220
0.0
230
1.0
 70
     8
 71
     3
 72
     9
 73
     5
 74
     3
 42
0.000000001
 43
0.0000000001
 44
0.00000001
 40
0.0
 40
0.0
 40
0.0
 40
0.0
 40
0.6469048118219389
 40
1.300209183851445
 40
1.300209183851445
 40
1.300209183851445
 40
1.300209183851445
 10
92.79685309766634
 20
77.3801056259599
 30
0.0
 10
92.98362152659105
 20
77.27232814063977
 30
0.0
 10
93.35900599681474
 20
77.05570695485005
 30
0.0
 10
93.73417722642526
 20
76.83871666154477
 30
0.0
 10
93.92268612258616
 20
76.72968749887012
 30
0.0
 11
92.79685309766634
 21
77.3801056259599
 31
0.0
 11
93.35710559282458
 21
77.05668179067317
 31
0.0
 11
93.92268612258616
 21
76.72968749887012
 31
0.0
  0
SPLINE
  5
348
330
1F
100
AcDbEntity
  8
0
  6
Continuous
 62
     7
100
AcDbSpline
210
0.0
220
0.0
230
1.0
 70
     8
 71
     3
 72
    11
 73
     7
 74
     5
 42
0.000000001
 43
0.0000000001
 44
0.00000001
 40
0.0
 40
0.0
 40
0.0
 40
0.0
 40
2.082796429286177
 40
4.328731295997578
 40
6.575374941907628
 40
8.660246424514982
 40
8.660246424514982
 40
8.660246424514982
 40
8.660246424514982
 10
99.51704362604957
 20
79.3185609568584
 30
0.0
 10
99.86437466824108
 20
78.71742394862495
 30
0.0
 10
100.5862420113514
 20
77.4680648849309
 30
0.0
 10
101.6822701334652
 20
75.56999400726397
 30
0.0
 10
102.7783813293222
 20
73.67117240375512
 30
0.0
 10
103.4998897729837
 20
72.42053463104556
 30
0.0
 10
103.8471706449719
 20
71.8185699683202
 30
0.0
 11
99.51704362604957
 21
79.3185609568584
 31
0.0
 11
100.5589614998956
 21
77.51510646339025
 31
0.0
 11
101.6821071355111
 21
75.5701727095782
 31
0.0
 11
102.8052527711265
 21
73.62442052779451
 31
0.0
 11
103.8471706449719
 21
71.8185699683202
 31
0.0
  0
SPLINE
  5
349
330
1F
100
AcDbEntity
  8
0
  6
Continuous
 62
     7
100
AcDbSpline
210
0.0
220
0.0
230
1.0
 70
     8
 71
     3
 72
     9
 73
     5
 74
     3
 42
0.000000001
 43
0.0000000001
 44
0.00000001
 40
0.0
 40
0.0
 40
0.0
 40
0.0
 40
0.5897687935624186
 40
1.153979608683949
 40
1.153979608683949
 40
1.153979608683949
 40
1.153979608683949
 10
103.8471706449718
 20
78.31866311118132
 30
0.0
 10
103.7488234747568
 20
78.48888444990894
 30
0.0
 10
103.5563910496154
 20
78.82195047526419
 30
0.0
 10
103.3639230322792
 20
79.15499593429648
 30
0.0
 10
103.2698203757817
 20
79.31783056573231
 30
0.0
 11
103.8471706449718
 21
78.31866311118132
 31
0.0
 11
103.5521198287203
 21
78.8293217502836
 31
0.0
 11
103.2698203757817
 21
79.31783056573231
 31
0.0
  0
SPLINE
  5
34A
330
1F
100
AcDbEntity
  8
0
  6
Continuous
 62
     7
100
AcDbSpline
210
0.0
220
0.0
230
1.0
 70
     8
 71
     3
 72
     9
 73
     5
 74
     3
 42
0.000000001
 43
0.0000000001
 44
0.00000001
 40
0.0
 40
0.0
 40
0.0
 40
0.0
 40
2.377877462919528
 40
4.562546688189535
 40
4.562546688189535
 40
4.562546688189535
 40
4.562546688189535
 10
101.0470218394022
 20
75.7695479035187
 30
0.0
 10
100.6507255950075
 20
75.08310417765887
 30
0.0
 10
99.89033314235284
 20
73.76599191232768
 30
0.0
 10
99.13037603171267
 20
72.44862841353111
 30
0.0
 10
98.76648827610344
 20
71.81783957719081
 30
0.0
 11
101.0470218394022
 21
75.7695479035187
 31
0.0
 11
99.85825136393797
 21
73.71014848006283
 31
0.0
 11
98.76648827610344
 21
71.81783957719081
 31
0.0
  0
SPLINE
  5
34B
330
1F
100
AcDbEntity
  8
0
  6
Continuous
 62
     7
100
AcDbSpline
210
0.0
220
0.0
230
1.0
 70
     8
 71
     3
 72
     9
 73
     5
 74
     3
 42
0.000000001
 43
0.0000000001
 44
0.00000001
 40
0.0
 40
0.0
 40
0.0
 40
0.0
 40
0.655561657546332
 40
1.299824343551171
 40
1.299824343551171
 40
1.299824343551171
 40
1.299824343551171
 10
94.37268612258615
 20
77.5088303955991
 30
0.0
 10
94.18341926677512
 20
77.61805168099872
 30
0.0
 10
93.80814766519171
 20
77.83461174457955
 30
0.0
 10
93.43286388147189
 20
78.05115069666061
 30
0.0
 10
93.24685309766616
 20
78.15847901100032
 30
0.0
 11
94.37268612258615
 21
77.5088303955991
 31
0.0
 11
93.80488245135533
 21
77.83648887295311
 31
0.0
 11
93.24685309766616
 21
78.15847901100032
 31
0.0
  0
SPLINE
  5
34C
330
1F
100
AcDbEntity
  8
0
  6
Continuous
 62
     7
100
AcDbSpline
210
0.0
220
0.0
230
1.0
 70
     8
 71
     3
 72
     9
 73
     5
 74
     3
 42
0.000000001
 43
0.0000000001
 44
0.00000001
 40
0.0
 40
0.0
 40
0.0
 40
0.0
 40
0.4452140345738563
 40
0.8990913044860123
 40
0.8990913044860123
 40
0.8990913044860123
 40
0.8990913044860123
 10
93.24685309766616
 20
78.15847901100032
 30
0.0
 10
93.17262251926618
 20
78.02997309156106
 30
0.0
 10
93.02271692309535
 20
77.77046071927627
 30
0.0
 10
92.87262312385648
 20
77.51105715200316
 30
0.0
 10
92.79685309766634
 20
77.3801056259599
 30
0.0
 11
93.24685309766616
 21
78.15847901100032
 31
0.0
 11
93.02411520555712
 21
77.77298793717046
 31
0.0
 11
92.79685309766634
 21
77.3801056259599
 31
0.0
  0
SPLINE
  5
34D
330
1F
100
AcDbEntity
  8
0
  6
Continuous
 62
     7
100
AcDbSpline
210
0.0
220
0.0
230
1.0
 70
     8
 71
     3
 72
     9
 73
     5
 74
     3
 42
0.000000001
 43
0.0000000001
 44
0.00000001
 40
0.0
 40
0.0
 40
0.0
 40
0.0
 40
0.5086941013016985
 40
1.038569262426477
 40
1.038569262426477
 40
1.038569262426477
 40
1.038569262426477
 10
93.91674601490999
 20
79.31783056573151
 30
0.0
 10
93.83190248177232
 20
79.17101856841869
 30
0.0
 10
93.65868270864263
 20
78.87128159001296
 30
0.0
 10
93.48549212161133
 20
78.57152774667084
 30
0.0
 10
93.39713077263937
 20
78.4185941609302
 30
0.0
 11
93.91674601490999
 21
79.31783056573151
 31
0.0
 11
93.66222242575124
 21
78.87739052297742
 31
0.0
 11
93.39713077263937
 21
78.4185941609302
 31
0.0
  0
SPLINE
  5
34E
330
1F
100
AcDbEntity
  8
0
  6
Continuous
 62
     7
100
AcDbSpline
210
0.0
220
0.0
230
1.0
 70
     8
 71
     3
 72
     9
 73
     5
 74
     3
 42
0.000000001
 43
0.0000000001
 44
0.00000001
 40
0.0
 40
0.0
 40
0.0
 40
0.0
 40
2.646026505755048
 40
5.08266346115821
 40
5.08266346115821
 40
5.08266346115821
 40
5.08266346115821
 10
99.74798373372548
 20
76.22012697968792
 30
0.0
 10
99.30706447420967
 20
75.45623575833353
 30
0.0
 10
98.4601174920557
 20
73.98890275273837
 30
0.0
 10
97.61350832401857
 20
72.52137481283569
 30
0.0
 10
97.20764254929142
 20
71.8178395771907
 30
0.0
 11
99.74798373372548
 21
76.22012697968792
 31
0.0
 11
98.42531751987812
 21
73.92840047857375
 31
0.0
 11
97.20764254929142
 21
71.8178395771907
 31
0.0
  0
SPLINE
  5
34F
330
1F
100
AcDbEntity
  8
0
  6
Continuous
 62
     7
100
AcDbSpline
210
0.0
220
0.0
230
1.0
 70
     8
 71
     3
 72
     9
 73
     5
 74
     3
 42
0.000000001
 43
0.0000000001
 44
0.00000001
 40
0.0
 40
0.0
 40
0.0
 40
0.0
 40
2.449210148138355
 40
5.081491599226633
 40
5.081491599226633
 40
5.081491599226633
 40
5.081491599226633
 10
98.24687303383317
 20
71.8185699683187
 30
0.0
 10
98.65484245098787
 20
72.52573010388598
 30
0.0
 10
99.50127582464899
 20
73.99290851910197
 30
0.0
 10
100.3483950043315
 20
75.45969107322074
 30
0.0
 10
100.7872142182668
 20
76.2195042910992
 30
0.0
 11
98.24687303383317
 21
71.8185699683187
 31
0.0
 11
99.47094061360312
 21
73.93995840750367
 31
0.0
 11
100.7872142182668
 21
76.2195042910992
 31
0.0
  0
SPLINE
  5
350
330
1F
100
AcDbEntity
  8
0
  6
Continuous
 62
     7
100
AcDbSpline
210
0.0
220
0.0
230
1.0
 70
     8
 71
     3
 72
     9
 73
     5
 74
     3
 42
0.000000001
 43
0.0000000001
 44
0.00000001
 40
0.0
 40
0.0
 40
0.0
 40
0.0
 40
1.697276571977417
 40
3.522640663920444
 40
3.522640663920444
 40
3.522640663920444
 40
3.522640663920444
 10
99.80571876064496
 20
71.8185699683187
 30
0.0
 10
100.0884249821769
 20
72.3086314798793
 30
0.0
 10
100.6751722912452
 20
73.32573771934479
 30
0.0
 10
101.2623651291183
 20
74.34258681405646
 30
0.0
 10
101.5666370816728
 20
74.86949829417041
 30
0.0
 11
99.80571876064496
 21
71.8185699683187
 31
0.0
 11
100.6539408627729
 21
73.28869480221886
 31
0.0
 11
101.5666370816728
 21
74.86949829417041
 31
0.0
  0
SPLINE
  5
351
330
1F
100
AcDbEntity
  8
0
  6
Continuous
 62
     7
100
AcDbSpline
210
0.0
220
0.0
230
1.0
 70
     8
 71
     3
 72
     9
 73
     5
 74
     3
 42
0.000000001
 43
0.0000000001
 44
0.00000001
 40
0.0
 40
0.0
 40
0.0
 40
0.0
 40
2.449763720032794
 40
5.082124236004951
 40
5.082124236004951
 40
5.082124236004951
 40
5.082124236004951
 10
96.68802730702109
 20
71.81783957719121
 30
0.0
 10
97.09597743576856
 20
72.52522387003683
 30
0.0
 10
97.94228488245334
 20
73.99271838998777
 30
0.0
 10
98.78952703060918
 20
75.45967347339564
 30
0.0
 10
99.22836849145486
 20
76.21950429109891
 30
0.0
 11
96.68802730702109
 21
71.81783957719121
 31
0.0
 11
97.91209488679571
 21
73.93986710862052
 31
0.0
 11
99.22836849145486
 21
76.21950429109891
 31
0.0
  0
SPLINE
  5
352
330
1F
100
AcDbEntity
  8
0
  6
Continuous
 62
     7
100
AcDbSpline
210
0.0
220
0.0
230
1.0
 70
     8
 71
     3
 72
    11
 73
     7
 74
     5
 42
0.000000001
 43
0.0000000001
 44
0.00000001
 40
0.0
 40
0.0
 40
0.0
 40
0.0
 40
0.3777218672308441
 40
0.8786866926872607
 40
1.851960751891345
 40
3.000007612982799
 40
3.000007612982799
 40
3.000007612982799
 40
3.000007612982799
 10
64.83236487431796
 20
68.5480135627915
 30
0.0
 10
64.95827003527025
 20
68.5487652251058
 30
0.0
 10
65.25116064898614
 20
68.55051378049754
 30
0.0
 10
65.86848104949706
 20
68.55163609718898
 30
0.0
 10
66.74257544220174
 20
68.55248782533415
 30
0.0
 10
67.44968252700328
 20
68.5526021982709
 30
0.0
 10
67.83236487431796
 20
68.55266409932672
 30
0.0
 11
64.83236487431796
 21
68.5480135627915
 31
0.0
 11
65.21008128518048
 21
68.55004382725998
 31
0.0
 11
65.71104453075858
 21
68.55130198871181
 31
0.0
 11
66.68431806786393
 21
68.55231008524808
 31
0.0
 11
67.83236487431796
 21
68.55266409932672
 31
0.0
  0
SPLINE
  5
353
330
1F
100
AcDbEntity
  8
0
  6
Continuous
 62
     7
100
AcDbSpline
210
0.0
220
0.0
230
1.0
 70
     8
 71
     3
 72
    11
 73
     7
 74
     5
 42
0.000000001
 43
0.0000000001
 44
0.00000001
 40
0.0
 40
0.0
 40
0.0
 40
0.0
 40
0.8596758748368493
 40
1.817054583492898
 40
2.42145321177306
 40
3.054474032526251
 40
3.054474032526251
 40
3.054474032526251
 40
3.054474032526251
 10
64.83236487431796
 20
87.6122283740056
 30
0.0
 10
64.88186426123198
 20
87.32352539207959
 30
0.0
 10
64.98648869336459
 20
86.71330811353758
 30
0.0
 10
65.6014322569438
 20
86.1223073913585
 30
0.0
 10
66.2335014566395
 20
85.75367023145662
 30
0.0
 10
66.6296890544044
 20
85.63239837978759
 30
0.0
 10
66.83236487431796
 20
85.57035991855656
 30
0.0
 11
64.83236487431796
 21
87.6122283740056
 31
0.0
 11
65.06073470393716
 21
86.78344020145667
 31
0.0
 11
65.71104453075827
 21
86.08082285896411
 31
0.0
 11
66.2347606831562
 21
85.77912914644921
 31
0.0
 11
66.83236487431796
 21
85.57035991855656
 31
0.0
  0
SPLINE
  5
354
330
1F
100
AcDbEntity
  8
0
  6
Continuous
 62
     7
100
AcDbSpline
210
0.0
220
0.0
230
1.0
 70
     8
 71
     3
 72
     9
 73
     5
 74
     3
 42
0.000000001
 43
0.0000000001
 44
0.00000001
 40
0.0
 40
0.0
 40
0.0
 40
0.0
 40
0.5106160209807628
 40
1.009599233151091
 40
1.009599233151091
 40
1.009599233151091
 40
1.009599233151091
 10
125.832364874318
 20
85.44649392514101
 30
0.0
 10
126.0029089938882
 20
85.45166862307244
 30
0.0
 10
126.3401119101919
 20
85.46190014927396
 30
0.0
 10
126.6695458222617
 20
85.53448543648061
 30
0.0
 10
126.832364874318
 20
85.5703599185566
 30
0.0
 11
125.832364874318
 21
85.44649392514101
 31
0.0
 11
126.3420099654405
 21
85.47796776527132
 31
0.0
 11
126.832364874318
 21
85.5703599185566
 31
0.0
  0
SPLINE
  5
355
330
1F
100
AcDbEntity
  8
0
  6
Continuous
 62
     7
100
AcDbSpline
210
0.0
220
0.0
230
1.0
 70
     8
 71
     3
 72
    11
 73
     7
 74
     5
 42
0.000000001
 43
0.0000000001
 44
0.00000001
 40
0.0
 40
0.0
 40
0.0
 40
0.0
 40
0.3777218672305456
 40
0.8786866926868202
 40
1.851960751891061
 40
3.000007612982785
 40
3.000007612982785
 40
3.000007612982785
 40
3.000007612982785
 10
128.832364874318
 20
68.5480135627915
 30
0.0
 10
128.7064597133658
 20
68.5487652251058
 30
0.0
 10
128.41356909965
 20
68.55051378049755
 30
0.0
 10
127.7962486991393
 20
68.55163609718896
 30
0.0
 10
126.9221543064345
 20
68.55248782533414
 30
0.0
 10
126.2150472216328
 20
68.55260219827092
 30
0.0
 10
125.832364874318
 20
68.55266409932672
 30
0.0
 11
128.832364874318
 21
68.5480135627915
 31
0.0
 11
128.4546484634558
 21
68.55004382725998
 31
0.0
 11
127.9536852178778
 21
68.55130198871181
 31
0.0
 11
126.9804116807723
 21
68.55231008524808
 31
0.0
 11
125.832364874318
 21
68.55266409932672
 31
0.0
  0
SPLINE
  5
356
330
1F
100
AcDbEntity
  8
0
  6
Continuous
 62
     7
100
AcDbSpline
210
0.0
220
0.0
230
1.0
 70
     8
 71
     3
 72
     9
 73
     5
 74
     3
 42
0.000000001
 43
0.0000000001
 44
0.00000001
 40
0.0
 40
0.0
 40
0.0
 40
0.0
 40
1.831534191762632
 40
3.740788025645099
 40
3.740788025645099
 40
3.740788025645099
 40
3.740788025645099
 10
112.9790796857321
 20
149.5154297688453
 30
0.0
 10
113.5939967196653
 20
149.4677228394759
 30
0.0
 10
114.8499242805034
 20
149.3702845572384
 30
0.0
 10
115.9760450495342
 20
148.8043010477297
 30
0.0
 10
116.5508037283603
 20
148.5154297688452
 30
0.0
 11
112.9790796857321
 21
149.5154297688453
 31
0.0
 11
114.7927135313061
 21
149.2599894146627
 31
0.0
 11
116.5508037283603
 21
148.5154297688452
 31
0.0
  0
SPLINE
  5
357
330
1F
100
AcDbEntity
  8
0
  6
Continuous
 62
     7
100
AcDbSpline
210
0.0
220
0.0
230
1.0
 70
     8
 71
     3
 72
     9
 73
     5
 74
     3
 42
0.000000001
 43
0.0000000001
 44
0.00000001
 40
0.0
 40
0.0
 40
0.0
 40
0.0
 40
1.647694553973359
 40
3.381369855095079
 40
3.381369855095079
 40
3.381369855095079
 40
3.381369855095079
 10
122.5508037283603
 20
117.5154297688452
 30
0.0
 10
122.0738269993967
 20
117.2264908558707
 30
0.0
 10
121.0949837172074
 20
116.6335355061388
 30
0.0
 10
119.9521322743122
 20
116.5554601029705
 30
0.0
 10
119.3661764599255
 20
116.5154297688453
 30
0.0
 11
122.5508037283603
 21
117.5154297688452
 31
0.0
 11
121.0809301683967
 21
116.7708701230278
 31
0.0
 11
119.3661764599255
 21
116.5154297688453
 31
0.0
  0
SPLINE
  5
358
330
1F
100
AcDbEntity
  8
0
  6
Continuous
 62
     7
100
AcDbSpline
210
0.0
220
0.0
230
1.0
 70
     8
 71
     3
 72
     9
 73
     5
 74
     3
 42
0.000000001
 43
0.0000000001
 44
0.00000001
 40
0.0
 40
0.0
 40
0.0
 40
0.0
 40
1.909253833882392
 40
3.740788025645103
 40
3.740788025645103
 40
3.740788025645103
 40
3.740788025645103
 10
77.11392602027567
 20
148.5154297688452
 30
0.0
 10
77.68868469910177
 20
148.8043010477297
 30
0.0
 10
78.81480546813262
 20
149.3702845572383
 30
0.0
 10
80.07073302897066
 20
149.4677228394759
 30
0.0
 10
80.68565006290387
 20
149.5154297688453
 30
0.0
 11
77.11392602027567
 21
148.5154297688452
 31
0.0
 11
78.8720162173298
 21
149.2599894146626
 31
0.0
 11
80.68565006290387
 21
149.5154297688453
 31
0.0
  0
SPLINE
  5
359
330
1F
100
AcDbEntity
  8
0
  6
Continuous
 62
     7
100
AcDbSpline
210
0.0
220
0.0
230
1.0
 70
     8
 71
     3
 72
     9
 73
     5
 74
     3
 42
0.000000001
 43
0.0000000001
 44
0.00000001
 40
0.0
 40
0.0
 40
0.0
 40
0.0
 40
1.733675301121762
 40
3.381369855095019
 40
3.381369855095019
 40
3.381369855095019
 40
3.381369855095019
 10
74.2985532887104
 20
116.5154297688453
 30
0.0
 10
73.71259747432357
 20
116.5554601029705
 30
0.0
 10
72.56974603142855
 20
116.6335355061388
 30
0.0
 10
71.5909027492393
 20
117.2264908558707
 30
0.0
 10
71.11392602027567
 20
117.5154297688452
 30
0.0
 11
74.2985532887104
 21
116.5154297688453
 31
0.0
 11
72.58379958023916
 21
116.7708701230278
 31
0.0
 11
71.11392602027567
 21
117.5154297688452
 31
0.0
  0
LWPOLYLINE
  5
35A
330
1F
100
AcDbEntity
  8
0
  6
Continuous
 62
     7
 60
     1
100
AcDbPolyline
 90
        2
 70
     0
 43
0.0
 10
-1756.104848900709
 20
3121.471926673017
 10
-1720.021144589957
 20
3098.031098144886
  0
LWPOLYLINE
  5
35B
330
1F
100
AcDbEntity
  8
0
  6
Continuous
 62
     7
 60
     1
100
AcDbPolyline
 90
        2
 70
     0
 43
0.0
 10
-1639.710629918418
 20
3121.471926673017
 10
-1603.626925607677
 20
3103.031098144886
  0
LWPOLYLINE
  5
35C
330
1F
100
AcDbEntity
  8
0
  6
Continuous
 62
     7
 60
     1
100
AcDbPolyline
 90
        2
 70
     0
 43
0.0
 10
-1354.710629918416
 20
3121.471926673017
 10
-1318.626925607668
 20
3130.931098144876
  0
LWPOLYLINE
  5
35D
330
1F
100
AcDbEntity
  8
0
  6
Continuous
 62
     7
 60
     1
100
AcDbPolyline
 90
        2
 70
     0
 43
0.0
 10
-1749.877429545869
 20
3117.2974811085
 10
-1713.793725235118
 20
3093.85665258037
  0
LWPOLYLINE
  5
35E
330
1F
100
AcDbEntity
  8
0
  6
Continuous
 62
     7
 60
     1
100
AcDbPolyline
 90
        2
 70
     0
 43
0.0
 10
-1633.483210563578
 20
3117.2974811085
 10
-1597.399506252838
 20
3098.85665258037
  0
LWPOLYLINE
  5
35F
330
1F
100
AcDbEntity
  8
0
  6
Continuous
 62
     7
 60
     1
100
AcDbPolyline
 90
        2
 70
     0
 43
0.0
 10
-1348.483210563577
 20
3117.2974811085
 10
-1312.399506252829
 20
3126.75665258036
  0
LWPOLYLINE
  5
360
330
1F
100
AcDbEntity
  8
0
  6
Continuous
 62
     7
 60
     1
100
AcDbPolyline
 90
        2
 70
     0
 43
0.0
 10
-1749.877429545869
 20
3117.2974811085
 10
-1713.793725235118
 20
3093.85665258037
  0
LWPOLYLINE
  5
361
330
1F
100
AcDbEntity
  8
0
  6
Continuous
 62
     7
 60
     1
100
AcDbPolyline
 90
        2
 70
     0
 43
0.0
 10
-1633.483210563578
 20
3117.2974811085
 10
-1597.399506252838
 20
3098.85665258037
  0
LWPOLYLINE
  5
362
330
1F
100
AcDbEntity
  8
0
  6
Continuous
 62
     7
 60
     1
100
AcDbPolyline
 90
        2
 70
     0
 43
0.0
 10
-1348.483210563577
 20
3117.2974811085
 10
-1312.399506252829
 20
3126.75665258036
  0
LWPOLYLINE
  5
363
330
1F
100
AcDbEntity
  8
0
  6
Continuous
 62
     7
 60
     1
100
AcDbPolyline
 90
        2
 70
     0
 43
0.0
 10
-1768.151847272609
 20
3115.964929507814
 10
-1732.068142961857
 20
3092.524100979683
  0
LWPOLYLINE
  5
364
330
1F
100
AcDbEntity
  8
0
  6
Continuous
 62
     7
 60
     1
100
AcDbPolyline
 90
        2
 70
     0
 43
0.0
 10
-1651.757628290317
 20
3115.964929507814
 10
-1615.673923979577
 20
3097.524100979683
  0
LWPOLYLINE
  5
365
330
1F
100
AcDbEntity
  8
0
  6
Continuous
 62
     7
 60
     1
100
AcDbPolyline
 90
        2
 70
     0
 43
0.0
 10
-1366.757628290316
 20
3115.964929507814
 10
-1330.673923979568
 20
3125.424100979673
  0
LWPOLYLINE
  5
366
330
1F
100
AcDbEntity
  8
0
  6
Continuous
 62
     7
 60
     1
100
AcDbPolyline
 90
        2
 70
     0
 43
0.0
 10
-1761.924427917769
 20
3111.790483943297
 10
-1725.840723607018
 20
3088.349655415168
  0
LWPOLYLINE
  5
367
330
1F
100
AcDbEntity
  8
0
  6
Continuous
 62
     7
 60
     1
100
AcDbPolyline
 90
        2
 70
     0
 43
0.0
 10
-1645.530208935478
 20
3111.790483943297
 10
-1609.446504624738
 20
3093.349655415168
  0
LWPOLYLINE
  5
368
330
1F
100
AcDbEntity
  8
0
  6
Continuous
 62
     7
 60
     1
100
AcDbPolyline
 90
        2
 70
     0
 43
0.0
 10
-1360.530208935477
 20
3111.790483943297
 10
-1324.446504624729
 20
3121.249655415158
  0
LWPOLYLINE
  5
369
330
1F
100
AcDbEntity
  8
0
  6
Continuous
 62
     7
 60
     1
100
AcDbPolyline
 90
        2
 70
     0
 43
0.0
 10
-1761.924427917769
 20
3111.790483943297
 10
-1725.840723607018
 20
3088.349655415168
  0
LWPOLYLINE
  5
36A
330
1F
100
AcDbEntity
  8
0
  6
Continuous
 62
     7
 60
     1
100
AcDbPolyline
 90
        2
 70
     0
 43
0.0
 10
-1645.530208935478
 20
3111.790483943297
 10
-1609.446504624738
 20
3093.349655415168
  0
LWPOLYLINE
  5
36B
330
1F
100
AcDbEntity
  8
0
  6
Continuous
 62
     7
 60
     1
100
AcDbPolyline
 90
        2
 70
     0
 43
0.0
 10
-1360.530208935477
 20
3111.790483943297
 10
-1324.446504624729
 20
3121.249655415158
  0
LWPOLYLINE
  5
36C
330
1F
100
AcDbEntity
  8
0
  6
Continuous
 62
     7
 60
     1
100
AcDbPolyline
 90
        2
 70
     0
 43
0.0
 10
-2021.713458422446
 20
2881.628959171573
 10
-1985.629754111694
 20
2858.188130643442
  0
LWPOLYLINE
  5
36D
330
1F
100
AcDbEntity
  8
0
  6
Continuous
 62
     7
 60
     1
100
AcDbPolyline
 90
        2
 70
     0
 43
0.0
 10
-1905.319239440155
 20
2881.628959171573
 10
-1869.235535129414
 20
2863.188130643442
  0
LWPOLYLINE
  5
36E
330
1F
100
AcDbEntity
  8
0
  6
Continuous
 62
     7
 60
     1
100
AcDbPolyline
 90
        2
 70
     0
 43
0.0
 10
-1620.319239440153
 20
2881.628959171573
 10
-1584.235535129405
 20
2891.088130643432
  0
LWPOLYLINE
  5
36F
330
1F
100
AcDbEntity
  8
0
  6
Continuous
 62
     7
 60
     1
100
AcDbPolyline
 90
        2
 70
     0
 43
0.0
 10
-2015.486039067606
 20
2877.454513607056
 10
-1979.402334756855
 20
2854.013685078926
  0
LWPOLYLINE
  5
370
330
1F
100
AcDbEntity
  8
0
  6
Continuous
 62
     7
 60
     1
100
AcDbPolyline
 90
        2
 70
     0
 43
0.0
 10
-1899.091820085315
 20
2877.454513607056
 10
-1863.008115774575
 20
2859.013685078926
  0
LWPOLYLINE
  5
371
330
1F
100
AcDbEntity
  8
0
  6
Continuous
 62
     7
 60
     1
100
AcDbPolyline
 90
        2
 70
     0
 43
0.0
 10
-1614.091820085314
 20
2877.454513607056
 10
-1578.008115774566
 20
2886.913685078916
  0
LWPOLYLINE
  5
372
330
1F
100
AcDbEntity
  8
0
  6
Continuous
 62
     7
 60
     1
100
AcDbPolyline
 90
        2
 70
     0
 43
0.0
 10
-2015.486039067606
 20
2877.454513607056
 10
-1979.402334756855
 20
2854.013685078926
  0
LWPOLYLINE
  5
373
330
1F
100
AcDbEntity
  8
0
  6
Continuous
 62
     7
 60
     1
100
AcDbPolyline
 90
        2
 70
     0
 43
0.0
 10
-1899.091820085315
 20
2877.454513607056
 10
-1863.008115774575
 20
2859.013685078926
  0
LWPOLYLINE
  5
374
330
1F
100
AcDbEntity
  8
0
  6
Continuous
 62
     7
 60
     1
100
AcDbPolyline
 90
        2
 70
     0
 43
0.0
 10
-1614.091820085314
 20
2877.454513607056
 10
-1578.008115774566
 20
2886.913685078916
  0
LWPOLYLINE
  5
375
330
1F
100
AcDbEntity
  8
0
  6
Continuous
 62
     7
 60
     1
100
AcDbPolyline
 90
        2
 70
     0
 43
0.0
 10
-2033.760456794346
 20
2876.12196200637
 10
-1997.676752483594
 20
2852.681133478239
  0
LWPOLYLINE
  5
376
330
1F
100
AcDbEntity
  8
0
  6
Continuous
 62
     7
 60
     1
100
AcDbPolyline
 90
        2
 70
     0
 43
0.0
 10
-1917.366237812054
 20
2876.12196200637
 10
-1881.282533501314
 20
2857.681133478239
  0
LWPOLYLINE
  5
377
330
1F
100
AcDbEntity
  8
0
  6
Continuous
 62
     7
 60
     1
100
AcDbPolyline
 90
        2
 70
     0
 43
0.0
 10
-1632.366237812053
 20
2876.12196200637
 10
-1596.282533501305
 20
2885.581133478229
  0
LWPOLYLINE
  5
378
330
1F
100
AcDbEntity
  8
0
  6
Continuous
 62
     7
 60
     1
100
AcDbPolyline
 90
        2
 70
     0
 43
0.0
 10
-2027.533037439506
 20
2871.947516441853
 10
-1991.449333128755
 20
2848.506687913724
  0
LWPOLYLINE
  5
379
330
1F
100
AcDbEntity
  8
0
  6
Continuous
 62
     7
 60
     1
100
AcDbPolyline
 90
        2
 70
     0
 43
0.0
 10
-1911.138818457215
 20
2871.947516441853
 10
-1875.055114146475
 20
2853.506687913724
  0
LWPOLYLINE
  5
37A
330
1F
100
AcDbEntity
  8
0
  6
Continuous
 62
     7
 60
     1
100
AcDbPolyline
 90
        2
 70
     0
 43
0.0
 10
-1626.138818457214
 20
2871.947516441853
 10
-1590.055114146466
 20
2881.406687913714
  0
LWPOLYLINE
  5
37B
330
1F
100
AcDbEntity
  8
0
  6
Continuous
 62
     7
 60
     1
100
AcDbPolyline
 90
        2
 70
     0
 43
0.0
 10
-2027.533037439506
 20
2871.947516441853
 10
-1991.449333128755
 20
2848.506687913724
  0
LWPOLYLINE
  5
37C
330
1F
100
AcDbEntity
  8
0
  6
Continuous
 62
     7
 60
     1
100
AcDbPolyline
 90
        2
 70
     0
 43
0.0
 10
-1911.138818457215
 20
2871.947516441853
 10
-1875.055114146475
 20
2853.506687913724
  0
LWPOLYLINE
  5
37D
330
1F
100
AcDbEntity
  8
0
  6
Continuous
 62
     7
 60
     1
100
AcDbPolyline
 90
        2
 70
     0
 43
0.0
 10
-1626.138818457214
 20
2871.947516441853
 10
-1590.055114146466
 20
2881.406687913714
  0
MTEXT
  5
37F
330
1F
100
AcDbEntity
  8
1
 62
     4
100
AcDbMText
 10
199.0110117293831
 20
47.28238603528222
 30
0.0
 40
3.5
 41
0.0
 71
     2
 72
     1
  1
 
  7
CONVERTER_14
 73
     1
 44
1.32052821128451
  0
MTEXT
  5
380
330
1F
100
AcDbEntity
  8
1
 62
     4
100
AcDbMText
 10
111.232364874318
 20
47.28238603528222
 30
0.0
 40
3.5
 41
0.0
 71
     2
 72
     1
  1
 
  7
CONVERTER_14
 73
     1
 44
1.32052821128451
  0
DIMENSION
  5
38B
330
1F
100
AcDbEntity
  8
1
100
AcDbDimension
  2
*D3
 10
252.5189993024622
 20
52.1037158659009
 30
0.0
 11
221.6756823253701
 21
55.7537158659009
 31
0.0
 70
    32
  1
62,5
 71
     5
 42
-1.0
 53
0.00013888888889
  3
ME10_DIM_10
100
AcDbAlignedDimension
 13
190.832365348278
 23
80.51542976884052
 33
0.0
 14
252.5189993024621
 24
93.51542976884282
 34
0.0
100
AcDbRotatedDimension
  0
DIMENSION
  5
396
330
1F
100
AcDbEntity
  8
1
100
AcDbDimension
  2
*D4
 10
190.7323655225109
 20
172.988200988027
 30
0.0
 11
212.2823653482776
 21
176.488200988027
 31
0.0
 70
    32
  1
43
 71
     5
 42
-1.0
 53
0.00013888888889
  3
ME10_DIM_11
100
AcDbAlignedDimension
 13
233.7323653482696
 23
155.5154297688453
 33
0.0
 14
190.7323655225109
 24
155.51449638404
 34
0.0
100
AcDbRotatedDimension
  0
DIMENSION
  5
3A1
330
1F
100
AcDbEntity
  8
1
100
AcDbDimension
  2
*D5
 10
175.312243644034
 20
158.0154297688407
 30
0.0
 11
171.662243644034
 21
119.2654297688406
 31
0.0
 70
    32
  1
<>
 71
     5
 42
-1.0
 53
90.0
  3
ME10_DIM_12
100
AcDbAlignedDimension
 13
190.832365348278
 23
80.51542976884052
 33
0.0
 14
193.2323653482692
 24
158.0154297688407
 34
0.0
 50
90.0
100
AcDbRotatedDimension
  0
DIMENSION
  5
3AC
330
1F
100
AcDbEntity
  8
1
100
AcDbDimension
  2
*D6
 10
84.33236473878057
 20
168.295407197524
 30
0.0
 11
96.83236473878057
 21
171.795407197524
 31
0.0
 70
    32
  1
M25
 71
     5
 42
-1.0
 53
0.00013888888889
  3
ME10_DIM_13
100
AcDbAlignedDimension
 13
109.3323647387806
 23
158.115429768845
 33
0.0
 14
84.33236473878057
 24
158.015429768845
 34
0.0
100
AcDbRotatedDimension
  0
DIMENSION
  5
3B7
330
1F
100
AcDbEntity
  8
1
100
AcDbDimension
  2
*D7
 10
59.33236487431796
 20
52.1037158659009
 30
0.0
 11
96.83236487431796
 21
55.6037158659009
 31
0.0
 70
    32
  1
<>
 71
     5
 42
-1.0
 53
0.00013888888889
  3
ME10_DIM_14
100
AcDbAlignedDimension
 13
134.332364874318
 23
68.5080189485851
 33
0.0
 14
59.33236487431797
 24
68.50801894858502
 34
0.0
100
AcDbRotatedDimension
  0
ENDSEC
  0
SECTION
  2
OBJECTS
  0
DICTIONARY
  5
C
330
0
100
AcDbDictionary
281
     1
  3
ACAD_GROUP
350
D
  3
ACAD_LAYOUT
350
1A
  3
ACAD_MATERIAL
350
3B
  3
ACAD_MLEADERSTYLE
350
3BA
  3
ACAD_MLINESTYLE
350
17
  3
ACAD_PLOTSETTINGS
350
19
  3
ACAD_PLOTSTYLENAME
350
E
  3
ACAD_VISUALSTYLE
350
2A
  3
AcDbVariableDictionary
350
3B8
  0
DICTIONARY
  5
D
102
{ACAD_REACTORS
330
C
102
}
330
C
100
AcDbDictionary
281
     1
  0
DICTIONARY
  5
1A
102
{ACAD_REACTORS
330
C
102
}
330
C
100
AcDbDictionary
281
     1
  3
Layout1
350
1E
  3
Layout2
350
26
  3
Model
350
22
  0
DICTIONARY
  5
3B
102
{ACAD_REACTORS
330
C
102
}
330
C
100
AcDbDictionary
281
     1
  3
ByBlock
350
3D
  3
ByLayer
350
3C
  3
Global
350
3E
  0
DICTIONARY
  5
3BA
102
{ACAD_REACTORS
330
C
102
}
330
C
100
AcDbDictionary
281
     1
  0
DICTIONARY
  5
17
102
{ACAD_REACTORS
330
C
102
}
330
C
100
AcDbDictionary
281
     1
  3
Standard
350
18
  0
DICTIONARY
  5
19
102
{ACAD_REACTORS
330
C
102
}
330
C
100
AcDbDictionary
281
     1
  0
ACDBDICTIONARYWDFLT
  5
E
102
{ACAD_REACTORS
330
C
102
}
330
C
100
AcDbDictionary
281
     1
  3
Normal
350
F
100
AcDbDictionaryWithDefault
340
F
  0
DICTIONARY
  5
2A
102
{ACAD_REACTORS
330
C
102
}
330
C
100
AcDbDictionary
281
     1
  3
2dWireframe
350
2F
  3
3D Hidden
350
31
  3
3dWireframe
350
30
  3
Basic
350
32
  3
Brighten
350
36
  3
ColorChange
350
3A
  3
Conceptual
350
34
  3
Dim
350
35
  3
Facepattern
350
39
  3
Flat
350
2B
  3
FlatWithEdges
350
2C
  3
Gouraud
350
2D
  3
GouraudWithEdges
350
2E
  3
Linepattern
350
38
  3
Realistic
350
33
  3
Thicken
350
37
  0
DICTIONARY
  5
3B8
102
{ACAD_REACTORS
330
C
102
}
330
C
100
AcDbDictionary
281
     1
  3
DIMASSOC
350
3BB
  3
HIDETEXT
350
3BC
  0
LAYOUT
  5
1E
102
{ACAD_REACTORS
330
1A
102
}
330
1A
100
AcDbPlotSettings
  1

  2
none_device
  4

  6

 40
0.0
 41
0.0
 42
0.0
 43
0.0
 44
0.0
 45
0.0
 46
0.0
 47
0.0
 48
0.0
 49
0.0
140
0.0
141
0.0
142
1.0
143
1.0
 70
   688
 72
     0
 73
     0
 74
     5
  7

 75
    16
147
1.0
148
0.0
149
0.0
100
AcDbLayout
  1
Layout1
 70
     1
 71
     1
 10
0.0
 20
0.0
 11
12.0
 21
9.0
 12
0.0
 22
0.0
 32
0.0
 14
1.00000000000000E+20
 24
1.00000000000000E+20
 34
1.00000000000000E+20
 15
-1.00000000000000E+20
 25
-1.00000000000000E+20
 35
-1.00000000000000E+20
146
0.0
 13
0.0
 23
0.0
 33
0.0
 16
1.0
 26
0.0
 36
0.0
 17
0.0
 27
1.0
 37
0.0
 76
     0
330
1B
  0
LAYOUT
  5
26
102
{ACAD_REACTORS
330
1A
102
}
330
1A
100
AcDbPlotSettings
  1

  2
none_device
  4

  6

 40
0.0
 41
0.0
 42
0.0
 43
0.0
 44
0.0
 45
0.0
 46
0.0
 47
0.0
 48
0.0
 49
0.0
140
0.0
141
0.0
142
1.0
143
1.0
 70
   688
 72
     0
 73
     0
 74
     5
  7

 75
    16
147
1.0
148
0.0
149
0.0
100
AcDbLayout
  1
Layout2
 70
     1
 71
     2
 10
0.0
 20
0.0
 11
0.0
 21
0.0
 12
0.0
 22
0.0
 32
0.0
 14
0.0
 24
0.0
 34
0.0
 15
0.0
 25
0.0
 35
0.0
146
0.0
 13
0.0
 23
0.0
 33
0.0
 16
1.0
 26
0.0
 36
0.0
 17
0.0
 27
1.0
 37
0.0
 76
     0
330
23
  0
LAYOUT
  5
22
102
{ACAD_REACTORS
330
1A
102
}
330
1A
100
AcDbPlotSettings
  1

  2
none_device
  4

  6

 40
0.0
 41
0.0
 42
0.0
 43
0.0
 44
0.0
 45
0.0
 46
0.0
 47
0.0
 48
0.0
 49
0.0
140
0.0
141
0.0
142
1.0
143
1.0
 70
  1712
 72
     0
 73
     0
 74
     0
  7

 75
     0
147
1.0
148
0.0
149
0.0
100
AcDbLayout
  1
Model
 70
     1
 71
     0
 10
0.0
 20
0.0
 11
12.0
 21
9.0
 12
0.0
 22
0.0
 32
0.0
 14
0.0
 24
0.0
 34
0.0
 15
297.0000000000002
 25
210.0000000000002
 35
0.0
146
0.0
 13
0.0
 23
0.0
 33
0.0
 16
1.0
 26
0.0
 36
0.0
 17
0.0
 27
1.0
 37
0.0
 76
     0
330
1F
331
29
  0
MATERIAL
  5
3D
102
{ACAD_REACTORS
330
3B
102
}
102
{ACAD_XDICTIONARY
360
3DF
102
}
330
3B
100
AcDbMaterial
  1
ByBlock
  0
MATERIAL
  5
3C
102
{ACAD_REACTORS
330
3B
102
}
102
{ACAD_XDICTIONARY
360
3DD
102
}
330
3B
100
AcDbMaterial
  1
ByLayer
  0
MATERIAL
  5
3E
102
{ACAD_REACTORS
330
3B
102
}
102
{ACAD_XDICTIONARY
360
3E1
102
}
330
3B
100
AcDbMaterial
  1
Global
  0
MLINESTYLE
  5
18
102
{ACAD_REACTORS
330
17
102
}
330
17
100
AcDbMlineStyle
  2
Standard
 70
     0
  3

 62
   256
 51
90.0
 52
90.0
 71
     2
 49
0.5
 62
   256
  6
BYLAYER
 49
-0.5
 62
   256
  6
BYLAYER
  0
ACDBPLACEHOLDER
  5
F
102
{ACAD_REACTORS
330
E
102
}
330
E
  0
VISUALSTYLE
  5
2F
102
{ACAD_REACTORS
330
2A
102
}
102
{ACAD_XDICTIONARY
360
3C5
102
}
330
2A
100
AcDbVisualStyle
  2
2dWireframe
 70
     4
 71
     0
 72
     2
 73
     0
 90
        0
 40
-0.6
 41
-30.0
 62
     5
 63
     7
 74
     1
 91
        4
 64
     7
 65
   257
 75
     1
175
     1
 42
1.0
 92
        0
 66
   257
 43
1.0
 76
     1
 77
     6
 78
     2
 67
     7
 79
     5
170
     0
171
     0
290
     0
174
     0
 93
        1
 44
0.0
173
     0
291
     0
 45
0.0
1001
ACAD
1000
AcDbSavedByObjectVersion
1070
     0
  0
VISUALSTYLE
  5
31
102
{ACAD_REACTORS
330
2A
102
}
102
{ACAD_XDICTIONARY
360
3C9
102
}
330
2A
100
AcDbVisualStyle
  2
3D Hidden
 70
     6
 71
     1
 72
     2
 73
     2
 90
        0
 40
-0.6
 41
-30.0
 62
     5
 63
     7
 74
     2
 91
        2
 64
     7
 65
   257
 75
     2
175
     1
 42
40.0
 92
        0
 66
   257
 43
1.0
 76
     1
 77
     6
 78
     2
 67
     7
 79
     3
170
     0
171
     0
290
     0
174
     0
 93
        1
 44
0.0
173
     0
291
     0
 45
0.0
1001
ACAD
1000
AcDbSavedByObjectVersion
1070
     0
  0
VISUALSTYLE
  5
30
102
{ACAD_REACTORS
330
2A
102
}
102
{ACAD_XDICTIONARY
360
3C7
102
}
330
2A
100
AcDbVisualStyle
  2
3dWireframe
 70
     5
 71
     0
 72
     2
 73
     0
 90
        0
 40
-0.6
 41
-30.0
 62
     5
 63
     7
 74
     1
 91
        4
 64
     7
 65
   257
 75
     1
175
     1
 42
1.0
 92
        0
 66
   257
 43
1.0
 76
     1
 77
     6
 78
     2
 67
     7
 79
     5
170
     0
171
     0
290
     0
174
     0
 93
        1
 44
0.0
173
     0
291
     0
 45
0.0
1001
ACAD
1000
AcDbSavedByObjectVersion
1070
     0
  0
VISUALSTYLE
  5
32
102
{ACAD_REACTORS
330
2A
102
}
102
{ACAD_XDICTIONARY
360
3CB
102
}
330
2A
100
AcDbVisualStyle
  2
Basic
 70
     7
 71
     1
 72
     0
 73
     1
 90
        0
 40
-0.6
 41
-30.0
 62
     5
 63
     7
 74
     0
 91
        4
 64
     7
 65
   257
 75
     1
175
     1
 42
1.0
 92
        8
 66
     7
 43
1.0
 76
     1
 77
     6
 78
     2
 67
     7
 79
     5
170
     0
171
     0
290
     0
174
     0
 93
        1
 44
0.0
173
     0
291
     1
 45
0.0
1001
ACAD
1000
AcDbSavedByObjectVersion
1070
     0
  0
VISUALSTYLE
  5
36
102
{ACAD_REACTORS
330
2A
102
}
102
{ACAD_XDICTIONARY
360
3D3
102
}
330
2A
100
AcDbVisualStyle
  2
Brighten
 70
    12
 71
     2
 72
     2
 73
     0
 90
        0
 40
-0.6
 41
-30.0
 62
     5
 63
     7
 74
     1
 91
        4
 64
     7
 65
   257
 75
     1
175
     1
 42
1.0
 92
        8
 66
     7
 43
1.0
 76
     1
 77
     6
 78
     2
 67
     7
 79
     5
170
     0
171
     0
290
     0
174
     0
 93
        1
 44
50.0
173
     0
291
     1
 45
0.0
1001
ACAD
1000
AcDbSavedByObjectVersion
1070
     0
  0
VISUALSTYLE
  5
3A
102
{ACAD_REACTORS
330
2A
102
}
102
{ACAD_XDICTIONARY
360
3DB
102
}
330
2A
100
AcDbVisualStyle
  2
ColorChange
 70
    16
 71
     2
 72
     2
 73
     3
 90
        0
 40
-0.6
 41
-30.0
 62
     5
 63
     8
 74
     1
 91
        4
 64
     7
 65
   257
 75
     1
175
     1
 42
1.0
 92
        8
 66
     8
 43
1.0
 76
     1
 77
     6
 78
     2
 67
     7
 79
     5
170
     0
171
     0
290
     0
174
     0
 93
        1
 44
0.0
173
     0
291
     1
 45
0.0
1001
ACAD
1000
AcDbSavedByObjectVersion
1070
     0
  0
VISUALSTYLE
  5
34
102
{ACAD_REACTORS
330
2A
102
}
102
{ACAD_XDICTIONARY
360
3CF
102
}
330
2A
100
AcDbVisualStyle
  2
Conceptual
 70
     9
 71
     3
 72
     2
 73
     0
 90
        0
 40
-0.6
 41
-30.0
 62
     5
 63
     7
 74
     2
 91
        2
 64
     7
 65
   257
 75
     1
175
     1
 42
40.0
 92
        8
 66
     7
 43
1.0
 76
     1
 77
     6
 78
     2
 67
     7
 79
     3
170
     0
171
     0
290
     0
174
     0
 93
        1
 44
0.0
173
     0
291
     0
 45
0.0
1001
ACAD
1000
AcDbSavedByObjectVersion
1070
     0
  0
VISUALSTYLE
  5
35
102
{ACAD_REACTORS
330
2A
102
}
102
{ACAD_XDICTIONARY
360
3D1
102
}
330
2A
100
AcDbVisualStyle
  2
Dim
 70
    11
 71
     2
 72
     2
 73
     0
 90
        0
 40
-0.6
 41
-30.0
 62
     5
 63
     7
 74
     1
 91
        4
 64
     7
 65
   257
 75
     1
175
     1
 42
1.0
 92
        8
 66
     7
 43
1.0
 76
     1
 77
     6
 78
     2
 67
     7
 79
     5
170
     0
171
     0
290
     0
174
     0
 93
        1
 44
-50.0
173
     0
291
     1
 45
0.0
1001
ACAD
1000
AcDbSavedByObjectVersion
1070
     0
  0
VISUALSTYLE
  5
39
102
{ACAD_REACTORS
330
2A
102
}
102
{ACAD_XDICTIONARY
360
3D9
102
}
330
2A
100
AcDbVisualStyle
  2
Facepattern
 70
    15
 71
     2
 72
     2
 73
     0
 90
        0
 40
-0.6
 41
-30.0
 62
     5
 63
     7
 74
     1
 91
        4
 64
     7
 65
   257
 75
     1
175
     1
 42
1.0
 92
        8
 66
     7
 43
1.0
 76
     1
 77
     6
 78
     2
 67
     7
 79
     5
170
     0
171
     0
290
     0
174
     0
 93
        1
 44
0.0
173
     0
291
     1
 45
0.0
1001
ACAD
1000
AcDbSavedByObjectVersion
1070
     0
  0
VISUALSTYLE
  5
2B
102
{ACAD_REACTORS
330
2A
102
}
102
{ACAD_XDICTIONARY
360
3BD
102
}
330
2A
100
AcDbVisualStyle
  2
Flat
 70
     0
 71
     2
 72
     1
 73
     1
 90
        2
 40
-0.6
 41
30.0
 62
     5
 63
     7
 74
     0
 91
        4
 64
     7
 65
   257
 75
     1
175
     1
 42
1.0
 92
        8
 66
     7
 43
1.0
 76
     1
 77
     6
 78
     2
 67
     7
 79
     5
170
     0
171
     0
290
     0
174
     0
 93
       13
 44
0.0
173
     0
291
     1
 45
0.0
1001
ACAD
1000
AcDbSavedByObjectVersion
1070
     0
  0
VISUALSTYLE
  5
2C
102
{ACAD_REACTORS
330
2A
102
}
102
{ACAD_XDICTIONARY
360
3BF
102
}
330
2A
100
AcDbVisualStyle
  2
FlatWithEdges
 70
     1
 71
     2
 72
     1
 73
     1
 90
        2
 40
-0.6
 41
30.0
 62
     5
 63
     7
 74
     1
 91
        4
 64
     7
 65
   257
 75
     1
175
     1
 42
1.0
 92
        0
 66
   257
 43
1.0
 76
     1
 77
     6
 78
     2
 67
     7
 79
     5
170
     0
171
     0
290
     0
174
     0
 93
       13
 44
0.0
173
     0
291
     1
 45
0.0
1001
ACAD
1000
AcDbSavedByObjectVersion
1070
     0
  0
VISUALSTYLE
  5
2D
102
{ACAD_REACTORS
330
2A
102
}
102
{ACAD_XDICTIONARY
360
3C1
102
}
330
2A
100
AcDbVisualStyle
  2
Gouraud
 70
     2
 71
     2
 72
     2
 73
     1
 90
        2
 40
-0.6
 41
30.0
 62
     5
 63
     7
 74
     0
 91
        4
 64
     7
 65
   257
 75
     1
175
     1
 42
1.0
 92
        0
 66
     7
 43
1.0
 76
     1
 77
     6
 78
     2
 67
     7
 79
     5
170
     0
171
     0
290
     0
174
     0
 93
       13
 44
0.0
173
     0
291
     1
 45
0.0
1001
ACAD
1000
AcDbSavedByObjectVersion
1070
     0
  0
VISUALSTYLE
  5
2E
102
{ACAD_REACTORS
330
2A
102
}
102
{ACAD_XDICTIONARY
360
3C3
102
}
330
2A
100
AcDbVisualStyle
  2
GouraudWithEdges
 70
     3
 71
     2
 72
     2
 73
     1
 90
        2
 40
-0.6
 41
30.0
 62
     5
 63
     7
 74
     1
 91
        4
 64
     7
 65
   257
 75
     1
175
     1
 42
1.0
 92
        0
 66
   257
 43
1.0
 76
     1
 77
     6
 78
     2
 67
     7
 79
     5
170
     0
171
     0
290
     0
174
     0
 93
       13
 44
0.0
173
     0
291
     1
 45
0.0
1001
ACAD
1000
AcDbSavedByObjectVersion
1070
     0
  0
VISUALSTYLE
  5
38
102
{ACAD_REACTORS
330
2A
102
}
102
{ACAD_XDICTIONARY
360
3D7
102
}
330
2A
100
AcDbVisualStyle
  2
Linepattern
 70
    14
 71
     2
 72
     2
 73
     0
 90
        0
 40
-0.6
 41
-30.0
 62
     5
 63
     7
 74
     1
 91
        4
 64
     7
 65
   257
 75
     7
175
     7
 42
1.0
 92
        8
 66
     7
 43
1.0
 76
     1
 77
     6
 78
     2
 67
     7
 79
     5
170
     0
171
     0
290
     0
174
     0
 93
        1
 44
0.0
173
     0
291
     1
 45
0.0
1001
ACAD
1000
AcDbSavedByObjectVersion
1070
     0
  0
VISUALSTYLE
  5
33
102
{ACAD_REACTORS
330
2A
102
}
102
{ACAD_XDICTIONARY
360
3CD
102
}
330
2A
100
AcDbVisualStyle
  2
Realistic
 70
     8
 71
     2
 72
     2
 73
     0
 90
        0
 40
-0.6
 41
-30.0
 62
     5
 63
     7
 74
     1
 91
        0
 64
     7
 65
   257
 75
     1
175
     1
 42
1.0
 92
        8
 66
     8
 43
1.0
 76
     1
 77
     6
 78
     2
 67
     7
 79
     5
170
     0
171
     0
290
     0
174
     0
 93
       13
 44
0.0
173
     0
291
     0
 45
0.0
1001
ACAD
1000
AcDbSavedByObjectVersion
1070
     0
  0
VISUALSTYLE
  5
37
102
{ACAD_REACTORS
330
2A
102
}
102
{ACAD_XDICTIONARY
360
3D5
102
}
330
2A
100
AcDbVisualStyle
  2
Thicken
 70
    13
 71
     2
 72
     2
 73
     0
 90
        0
 40
-0.6
 41
-30.0
 62
     5
 63
     7
 74
     1
 91
        4
 64
     7
 65
   257
 75
     1
175
     1
 42
1.0
 92
       12
 66
     7
 43
1.0
 76
     1
 77
     6
 78
     2
 67
     7
 79
     5
170
     0
171
     0
290
     0
174
     0
 93
        1
 44
0.0
173
     0
291
     1
 45
0.0
1001
ACAD
1000
AcDbSavedByObjectVersion
1070
     0
  0
DICTIONARYVAR
  5
3BB
102
{ACAD_REACTORS
330
3B8
102
}
330
3B8
100
DictionaryVariables
280
     0
  1
2
  0
DICTIONARYVAR
  5
3BC
102
{ACAD_REACTORS
330
3B8
102
}
330
3B8
100
DictionaryVariables
280
     0
  1
1
  0
DICTIONARY
  5
3DF
330
3D
100
AcDbDictionary
280
     1
281
     1
  3
ACAD_XREC_ROUNDTRIP
360
3E0
  0
DICTIONARY
  5
3DD
330
3C
100
AcDbDictionary
280
     1
281
     1
  3
ACAD_XREC_ROUNDTRIP
360
3DE
  0
DICTIONARY
  5
3E1
330
3E
100
AcDbDictionary
280
     1
281
     1
  3
ACAD_XREC_ROUNDTRIP
360
3E2
  0
DICTIONARY
  5
3C5
330
2F
100
AcDbDictionary
280
     1
281
     1
  3
ACAD_XREC_ROUNDTRIP
360
3C6
  0
DICTIONARY
  5
3C9
330
31
100
AcDbDictionary
280
     1
281
     1
  3
ACAD_XREC_ROUNDTRIP
360
3CA
  0
DICTIONARY
  5
3C7
330
30
100
AcDbDictionary
280
     1
281
     1
  3
ACAD_XREC_ROUNDTRIP
360
3C8
  0
DICTIONARY
  5
3CB
330
32
100
AcDbDictionary
280
     1
281
     1
  3
ACAD_XREC_ROUNDTRIP
360
3CC
  0
DICTIONARY
  5
3D3
330
36
100
AcDbDictionary
280
     1
281
     1
  3
ACAD_XREC_ROUNDTRIP
360
3D4
  0
DICTIONARY
  5
3DB
330
3A
100
AcDbDictionary
280
     1
281
     1
  3
ACAD_XREC_ROUNDTRIP
360
3DC
  0
DICTIONARY
  5
3CF
330
34
100
AcDbDictionary
280
     1
281
     1
  3
ACAD_XREC_ROUNDTRIP
360
3D0
  0
DICTIONARY
  5
3D1
330
35
100
AcDbDictionary
280
     1
281
     1
  3
ACAD_XREC_ROUNDTRIP
360
3D2
  0
DICTIONARY
  5
3D9
330
39
100
AcDbDictionary
280
     1
281
     1
  3
ACAD_XREC_ROUNDTRIP
360
3DA
  0
DICTIONARY
  5
3BD
330
2B
100
AcDbDictionary
280
     1
281
     1
  3
ACAD_XREC_ROUNDTRIP
360
3BE
  0
DICTIONARY
  5
3BF
330
2C
100
AcDbDictionary
280
     1
281
     1
  3
ACAD_XREC_ROUNDTRIP
360
3C0
  0
DICTIONARY
  5
3C1
330
2D
100
AcDbDictionary
280
     1
281
     1
  3
ACAD_XREC_ROUNDTRIP
360
3C2
  0
DICTIONARY
  5
3C3
330
2E
100
AcDbDictionary
280
     1
281
     1
  3
ACAD_XREC_ROUNDTRIP
360
3C4
  0
DICTIONARY
  5
3D7
330
38
100
AcDbDictionary
280
     1
281
     1
  3
ACAD_XREC_ROUNDTRIP
360
3D8
  0
DICTIONARY
  5
3CD
330
33
100
AcDbDictionary
280
     1
281
     1
  3
ACAD_XREC_ROUNDTRIP
360
3CE
  0
DICTIONARY
  5
3D5
330
37
100
AcDbDictionary
280
     1
281
     1
  3
ACAD_XREC_ROUNDTRIP
360
3D6
  0
XRECORD
  5
3E0
102
{ACAD_REACTORS
330
3DF
102
}
330
3DF
100
AcDbXrecord
280
     1
102
MATERIAL
148
0.0
149
0.0
149
0.0
 93
        0
 94
      127
282
     0
 72
     1
 77
     1
171
     1
175
     1
179
     1
273
     0
  0
XRECORD
  5
3DE
102
{ACAD_REACTORS
330
3DD
102
}
330
3DD
100
AcDbXrecord
280
     1
102
MATERIAL
148
0.0
149
0.0
149
0.0
 93
        0
 94
      127
282
     0
 72
     1
 77
     1
171
     1
175
     1
179
     1
273
     0
  0
XRECORD
  5
3E2
102
{ACAD_REACTORS
330
3E1
102
}
330
3E1
100
AcDbXrecord
280
     1
102
MATERIAL
148
0.0
149
0.0
149
0.0
 93
        0
 94
      127
282
     0
 72
     1
 77
     1
171
     1
175
     1
179
     1
273
     0
  0
XRECORD
  5
3C6
102
{ACAD_REACTORS
330
3C5
102
}
330
3C5
100
AcDbXrecord
280
     1
102
RTVSPropertyOp0
 70
     1
102
RTVSPropertyOp1
 70
     1
102
RTVSPropertyOp2
 70
     1
102
RTVSPropertyOp3
 70
     1
102
RTVSPropertyOp4
 70
     1
102
RTVSPropertyOp5
 70
     1
102
RTVSPropertyOp6
 70
     1
102
RTVSPropertyOp7
 70
     1
102
RTVSPropertyOp8
 70
     1
102
RTVSPropertyOp9
 70
     1
102
RTVSPropertyOp10
 70
     1
102
RTVSPropertyOp11
 70
     1
102
RTVSPropertyOp12
 70
     1
102
RTVSPropertyOp13
 70
     1
102
RTVSPropertyOp14
 70
     1
102
RTVSPropertyOp15
 70
     1
102
RTVSPropertyOp16
 70
     1
102
RTVSPropertyOp17
 70
     1
102
RTVSPropertyOp18
 70
     1
102
RTVSPropertyOp19
 70
     1
102
RTVSPropertyOp20
 70
     1
102
RTVSPropertyOp21
 70
     1
102
RTVSPropertyOp22
 70
     1
102
RTVSPropertyOp23
 70
     1
102
RTVSPropertyOp24
 70
     1
102
RTVSPropertyOp25
 70
     1
102
RTVSPropertyOp26
 70
     1
102
RTVSPropertyOp27
 70
     1
102
RTVSPropertyOp28
 70
     1
102
RTVSPropertyOp29
 70
     1
102
RTVSPropertyOp30
 70
     1
102
RTVSPropertyOp31
 70
     1
102
RTVSPropertyOp32
 70
     1
  0
XRECORD
  5
3CA
102
{ACAD_REACTORS
330
3C9
102
}
330
3C9
100
AcDbXrecord
280
     1
102
RTVSPropertyOp0
 70
     1
102
RTVSPropertyOp1
 70
     1
102
RTVSPropertyOp2
 70
     1
102
RTVSPropertyOp3
 70
     1
102
RTVSPropertyOp4
 70
     1
102
RTVSPropertyOp5
 70
     1
102
RTVSPropertyOp6
 70
     1
102
RTVSPropertyOp7
 70
     1
102
RTVSPropertyOp8
 70
     1
102
RTVSPropertyOp9
 70
     1
102
RTVSPropertyOp10
 70
     1
102
RTVSPropertyOp11
 70
     1
102
RTVSPropertyOp12
 70
     1
102
RTVSPropertyOp13
 70
     1
102
RTVSPropertyOp14
 70
     1
102
RTVSPropertyOp15
 70
     1
102
RTVSPropertyOp16
 70
     1
102
RTVSPropertyOp17
 70
     1
102
RTVSPropertyOp18
 70
     1
102
RTVSPropertyOp19
 70
     1
102
RTVSPropertyOp20
 70
     1
102
RTVSPropertyOp21
 70
     1
102
RTVSPropertyOp22
 70
     1
102
RTVSPropertyOp23
 70
     1
102
RTVSPropertyOp24
 70
     1
102
RTVSPropertyOp25
 70
     1
102
RTVSPropertyOp26
 70
     1
102
RTVSPropertyOp27
 70
     1
102
RTVSPropertyOp28
 70
     1
102
RTVSPropertyOp29
 70
     1
102
RTVSPropertyOp30
 70
     1
102
RTVSPropertyOp31
 70
     1
102
RTVSPropertyOp32
 70
     1
  0
XRECORD
  5
3C8
102
{ACAD_REACTORS
330
3C7
102
}
330
3C7
100
AcDbXrecord
280
     1
102
RTVSPropertyOp0
 70
     1
102
RTVSPropertyOp1
 70
     1
102
RTVSPropertyOp2
 70
     1
102
RTVSPropertyOp3
 70
     1
102
RTVSPropertyOp4
 70
     1
102
RTVSPropertyOp5
 70
     1
102
RTVSPropertyOp6
 70
     1
102
RTVSPropertyOp7
 70
     1
102
RTVSPropertyOp8
 70
     1
102
RTVSPropertyOp9
 70
     1
102
RTVSPropertyOp10
 70
     1
102
RTVSPropertyOp11
 70
     1
102
RTVSPropertyOp12
 70
     1
102
RTVSPropertyOp13
 70
     1
102
RTVSPropertyOp14
 70
     1
102
RTVSPropertyOp15
 70
     1
102
RTVSPropertyOp16
 70
     1
102
RTVSPropertyOp17
 70
     1
102
RTVSPropertyOp18
 70
     1
102
RTVSPropertyOp19
 70
     1
102
RTVSPropertyOp20
 70
     1
102
RTVSPropertyOp21
 70
     1
102
RTVSPropertyOp22
 70
     1
102
RTVSPropertyOp23
 70
     1
102
RTVSPropertyOp24
 70
     1
102
RTVSPropertyOp25
 70
     1
102
RTVSPropertyOp26
 70
     1
102
RTVSPropertyOp27
 70
     1
102
RTVSPropertyOp28
 70
     1
102
RTVSPropertyOp29
 70
     1
102
RTVSPropertyOp30
 70
     1
102
RTVSPropertyOp31
 70
     1
102
RTVSPropertyOp32
 70
     1
  0
XRECORD
  5
3CC
102
{ACAD_REACTORS
330
3CB
102
}
330
3CB
100
AcDbXrecord
280
     1
102
RTVSPropertyOp0
 70
     1
102
RTVSPropertyOp1
 70
     1
102
RTVSPropertyOp2
 70
     1
102
RTVSPropertyOp3
 70
     1
102
RTVSPropertyOp4
 70
     1
102
RTVSPropertyOp5
 70
     1
102
RTVSPropertyOp6
 70
     1
102
RTVSPropertyOp7
 70
     1
102
RTVSPropertyOp8
 70
     1
102
RTVSPropertyOp9
 70
     1
102
RTVSPropertyOp10
 70
     1
102
RTVSPropertyOp11
 70
     1
102
RTVSPropertyOp12
 70
     1
102
RTVSPropertyOp13
 70
     1
102
RTVSPropertyOp14
 70
     1
102
RTVSPropertyOp15
 70
     1
102
RTVSPropertyOp16
 70
     1
102
RTVSPropertyOp17
 70
     1
102
RTVSPropertyOp18
 70
     1
102
RTVSPropertyOp19
 70
     1
102
RTVSPropertyOp20
 70
     1
102
RTVSPropertyOp21
 70
     1
102
RTVSPropertyOp22
 70
     1
102
RTVSPropertyOp23
 70
     1
102
RTVSPropertyOp24
 70
     1
102
RTVSPropertyOp25
 70
     1
102
RTVSPropertyOp26
 70
     1
102
RTVSPropertyOp27
 70
     1
102
RTVSPropertyOp28
 70
     1
102
RTVSPropertyOp29
 70
     1
102
RTVSPropertyOp30
 70
     1
102
RTVSPropertyOp31
 70
     1
102
RTVSPropertyOp32
 70
     1
  0
XRECORD
  5
3D4
102
{ACAD_REACTORS
330
3D3
102
}
330
3D3
100
AcDbXrecord
280
     1
102
RTVSPropertyOp0
 70
     1
102
RTVSPropertyOp1
 70
     1
102
RTVSPropertyOp2
 70
     1
102
RTVSPropertyOp3
 70
     1
102
RTVSPropertyOp4
 70
     1
102
RTVSPropertyOp5
 70
     1
102
RTVSPropertyOp6
 70
     1
102
RTVSPropertyOp7
 70
     1
102
RTVSPropertyOp8
 70
     1
102
RTVSPropertyOp9
 70
     1
102
RTVSPropertyOp10
 70
     1
102
RTVSPropertyOp11
 70
     1
102
RTVSPropertyOp12
 70
     1
102
RTVSPropertyOp13
 70
     1
102
RTVSPropertyOp14
 70
     1
102
RTVSPropertyOp15
 70
     1
102
RTVSPropertyOp16
 70
     1
102
RTVSPropertyOp17
 70
     1
102
RTVSPropertyOp18
 70
     1
102
RTVSPropertyOp19
 70
     1
102
RTVSPropertyOp20
 70
     1
102
RTVSPropertyOp21
 70
     1
102
RTVSPropertyOp22
 70
     1
102
RTVSPropertyOp23
 70
     1
102
RTVSPropertyOp24
 70
     1
102
RTVSPropertyOp25
 70
     1
102
RTVSPropertyOp26
 70
     1
102
RTVSPropertyOp27
 70
     1
102
RTVSPropertyOp28
 70
     1
102
RTVSPropertyOp29
 70
     1
102
RTVSPropertyOp30
 70
     1
102
RTVSPropertyOp31
 70
     1
102
RTVSPropertyOp32
 70
     1
  0
XRECORD
  5
3DC
102
{ACAD_REACTORS
330
3DB
102
}
330
3DB
100
AcDbXrecord
280
     1
102
RTVSPropertyOp0
 70
     1
102
RTVSPropertyOp1
 70
     1
102
RTVSPropertyOp2
 70
     1
102
RTVSPropertyOp3
 70
     1
102
RTVSPropertyOp4
 70
     1
102
RTVSPropertyOp5
 70
     1
102
RTVSPropertyOp6
 70
     1
102
RTVSPropertyOp7
 70
     1
102
RTVSPropertyOp8
 70
     1
102
RTVSPropertyOp9
 70
     1
102
RTVSPropertyOp10
 70
     1
102
RTVSPropertyOp11
 70
     1
102
RTVSPropertyOp12
 70
     1
102
RTVSPropertyOp13
 70
     1
102
RTVSPropertyOp14
 70
     1
102
RTVSPropertyOp15
 70
     1
102
RTVSPropertyOp16
 70
     1
102
RTVSPropertyOp17
 70
     1
102
RTVSPropertyOp18
 70
     1
102
RTVSPropertyOp19
 70
     1
102
RTVSPropertyOp20
 70
     1
102
RTVSPropertyOp21
 70
     1
102
RTVSPropertyOp22
 70
     1
102
RTVSPropertyOp23
 70
     1
102
RTVSPropertyOp24
 70
     1
102
RTVSPropertyOp25
 70
     1
102
RTVSPropertyOp26
 70
     1
102
RTVSPropertyOp27
 70
     1
102
RTVSPropertyOp28
 70
     1
102
RTVSPropertyOp29
 70
     1
102
RTVSPropertyOp30
 70
     1
102
RTVSPropertyOp31
 70
     1
102
RTVSPropertyOp32
 70
     1
  0
XRECORD
  5
3D0
102
{ACAD_REACTORS
330
3CF
102
}
330
3CF
100
AcDbXrecord
280
     1
102
RTVSPropertyOp0
 70
     1
102
RTVSPropertyOp1
 70
     1
102
RTVSPropertyOp2
 70
     1
102
RTVSPropertyOp3
 70
     1
102
RTVSPropertyOp4
 70
     1
102
RTVSPropertyOp5
 70
     1
102
RTVSPropertyOp6
 70
     1
102
RTVSPropertyOp7
 70
     1
102
RTVSPropertyOp8
 70
     1
102
RTVSPropertyOp9
 70
     1
102
RTVSPropertyOp10
 70
     1
102
RTVSPropertyOp11
 70
     1
102
RTVSPropertyOp12
 70
     1
102
RTVSPropertyOp13
 70
     1
102
RTVSPropertyOp14
 70
     1
102
RTVSPropertyOp15
 70
     1
102
RTVSPropertyOp16
 70
     1
102
RTVSPropertyOp17
 70
     1
102
RTVSPropertyOp18
 70
     1
102
RTVSPropertyOp19
 70
     1
102
RTVSPropertyOp20
 70
     1
102
RTVSPropertyOp21
 70
     1
102
RTVSPropertyOp22
 70
     1
102
RTVSPropertyOp23
 70
     1
102
RTVSPropertyOp24
 70
     1
102
RTVSPropertyOp25
 70
     1
102
RTVSPropertyOp26
 70
     1
102
RTVSPropertyOp27
 70
     1
102
RTVSPropertyOp28
 70
     1
102
RTVSPropertyOp29
 70
     1
102
RTVSPropertyOp30
 70
     1
102
RTVSPropertyOp31
 70
     1
102
RTVSPropertyOp32
 70
     1
  0
XRECORD
  5
3D2
102
{ACAD_REACTORS
330
3D1
102
}
330
3D1
100
AcDbXrecord
280
     1
102
RTVSPropertyOp0
 70
     1
102
RTVSPropertyOp1
 70
     1
102
RTVSPropertyOp2
 70
     1
102
RTVSPropertyOp3
 70
     1
102
RTVSPropertyOp4
 70
     1
102
RTVSPropertyOp5
 70
     1
102
RTVSPropertyOp6
 70
     1
102
RTVSPropertyOp7
 70
     1
102
RTVSPropertyOp8
 70
     1
102
RTVSPropertyOp9
 70
     1
102
RTVSPropertyOp10
 70
     1
102
RTVSPropertyOp11
 70
     1
102
RTVSPropertyOp12
 70
     1
102
RTVSPropertyOp13
 70
     1
102
RTVSPropertyOp14
 70
     1
102
RTVSPropertyOp15
 70
     1
102
RTVSPropertyOp16
 70
     1
102
RTVSPropertyOp17
 70
     1
102
RTVSPropertyOp18
 70
     1
102
RTVSPropertyOp19
 70
     1
102
RTVSPropertyOp20
 70
     1
102
RTVSPropertyOp21
 70
     1
102
RTVSPropertyOp22
 70
     1
102
RTVSPropertyOp23
 70
     1
102
RTVSPropertyOp24
 70
     1
102
RTVSPropertyOp25
 70
     1
102
RTVSPropertyOp26
 70
     1
102
RTVSPropertyOp27
 70
     1
102
RTVSPropertyOp28
 70
     1
102
RTVSPropertyOp29
 70
     1
102
RTVSPropertyOp30
 70
     1
102
RTVSPropertyOp31
 70
     1
102
RTVSPropertyOp32
 70
     1
  0
XRECORD
  5
3DA
102
{ACAD_REACTORS
330
3D9
102
}
330
3D9
100
AcDbXrecord
280
     1
102
RTVSPropertyOp0
 70
     1
102
RTVSPropertyOp1
 70
     1
102
RTVSPropertyOp2
 70
     1
102
RTVSPropertyOp3
 70
     1
102
RTVSPropertyOp4
 70
     1
102
RTVSPropertyOp5
 70
     1
102
RTVSPropertyOp6
 70
     1
102
RTVSPropertyOp7
 70
     1
102
RTVSPropertyOp8
 70
     1
102
RTVSPropertyOp9
 70
     1
102
RTVSPropertyOp10
 70
     1
102
RTVSPropertyOp11
 70
     1
102
RTVSPropertyOp12
 70
     1
102
RTVSPropertyOp13
 70
     1
102
RTVSPropertyOp14
 70
     1
102
RTVSPropertyOp15
 70
     1
102
RTVSPropertyOp16
 70
     1
102
RTVSPropertyOp17
 70
     1
102
RTVSPropertyOp18
 70
     1
102
RTVSPropertyOp19
 70
     1
102
RTVSPropertyOp20
 70
     1
102
RTVSPropertyOp21
 70
     1
102
RTVSPropertyOp22
 70
     1
102
RTVSPropertyOp23
 70
     1
102
RTVSPropertyOp24
 70
     1
102
RTVSPropertyOp25
 70
     1
102
RTVSPropertyOp26
 70
     1
102
RTVSPropertyOp27
 70
     1
102
RTVSPropertyOp28
 70
     1
102
RTVSPropertyOp29
 70
     1
102
RTVSPropertyOp30
 70
     1
102
RTVSPropertyOp31
 70
     1
102
RTVSPropertyOp32
 70
     1
  0
XRECORD
  5
3BE
102
{ACAD_REACTORS
330
3BD
102
}
330
3BD
100
AcDbXrecord
280
     1
102
RTVSPropertyOp0
 70
     1
102
RTVSPropertyOp1
 70
     1
102
RTVSPropertyOp2
 70
     1
102
RTVSPropertyOp3
 70
     1
102
RTVSPropertyOp4
 70
     1
102
RTVSPropertyOp5
 70
     1
102
RTVSPropertyOp6
 70
     1
102
RTVSPropertyOp7
 70
     1
102
RTVSPropertyOp8
 70
     1
102
RTVSPropertyOp9
 70
     1
102
RTVSPropertyOp10
 70
     1
102
RTVSPropertyOp11
 70
     1
102
RTVSPropertyOp12
 70
     1
102
RTVSPropertyOp13
 70
     1
102
RTVSPropertyOp14
 70
     1
102
RTVSPropertyOp15
 70
     1
102
RTVSPropertyOp16
 70
     1
102
RTVSPropertyOp17
 70
     1
102
RTVSPropertyOp18
 70
     1
102
RTVSPropertyOp19
 70
     1
102
RTVSPropertyOp20
 70
     1
102
RTVSPropertyOp21
 70
     1
102
RTVSPropertyOp22
 70
     1
102
RTVSPropertyOp23
 70
     1
102
RTVSPropertyOp24
 70
     1
102
RTVSPropertyOp25
 70
     1
102
RTVSPropertyOp26
 70
     1
102
RTVSPropertyOp27
 70
     1
102
RTVSPropertyOp28
 70
     1
102
RTVSPropertyOp29
 70
     1
102
RTVSPropertyOp30
 70
     1
102
RTVSPropertyOp31
 70
     1
102
RTVSPropertyOp32
 70
     1
  0
XRECORD
  5
3C0
102
{ACAD_REACTORS
330
3BF
102
}
330
3BF
100
AcDbXrecord
280
     1
102
RTVSPropertyOp0
 70
     1
102
RTVSPropertyOp1
 70
     1
102
RTVSPropertyOp2
 70
     1
102
RTVSPropertyOp3
 70
     1
102
RTVSPropertyOp4
 70
     1
102
RTVSPropertyOp5
 70
     1
102
RTVSPropertyOp6
 70
     1
102
RTVSPropertyOp7
 70
     1
102
RTVSPropertyOp8
 70
     1
102
RTVSPropertyOp9
 70
     1
102
RTVSPropertyOp10
 70
     1
102
RTVSPropertyOp11
 70
     1
102
RTVSPropertyOp12
 70
     1
102
RTVSPropertyOp13
 70
     1
102
RTVSPropertyOp14
 70
     1
102
RTVSPropertyOp15
 70
     1
102
RTVSPropertyOp16
 70
     1
102
RTVSPropertyOp17
 70
     1
102
RTVSPropertyOp18
 70
     1
102
RTVSPropertyOp19
 70
     1
102
RTVSPropertyOp20
 70
     1
102
RTVSPropertyOp21
 70
     1
102
RTVSPropertyOp22
 70
     1
102
RTVSPropertyOp23
 70
     1
102
RTVSPropertyOp24
 70
     1
102
RTVSPropertyOp25
 70
     1
102
RTVSPropertyOp26
 70
     1
102
RTVSPropertyOp27
 70
     1
102
RTVSPropertyOp28
 70
     1
102
RTVSPropertyOp29
 70
     1
102
RTVSPropertyOp30
 70
     1
102
RTVSPropertyOp31
 70
     1
102
RTVSPropertyOp32
 70
     1
  0
XRECORD
  5
3C2
102
{ACAD_REACTORS
330
3C1
102
}
330
3C1
100
AcDbXrecord
280
     1
102
RTVSPropertyOp0
 70
     1
102
RTVSPropertyOp1
 70
     1
102
RTVSPropertyOp2
 70
     1
102
RTVSPropertyOp3
 70
     1
102
RTVSPropertyOp4
 70
     1
102
RTVSPropertyOp5
 70
     1
102
RTVSPropertyOp6
 70
     1
102
RTVSPropertyOp7
 70
     1
102
RTVSPropertyOp8
 70
     1
102
RTVSPropertyOp9
 70
     1
102
RTVSPropertyOp10
 70
     1
102
RTVSPropertyOp11
 70
     1
102
RTVSPropertyOp12
 70
     1
102
RTVSPropertyOp13
 70
     1
102
RTVSPropertyOp14
 70
     1
102
RTVSPropertyOp15
 70
     1
102
RTVSPropertyOp16
 70
     1
102
RTVSPropertyOp17
 70
     1
102
RTVSPropertyOp18
 70
     1
102
RTVSPropertyOp19
 70
     1
102
RTVSPropertyOp20
 70
     1
102
RTVSPropertyOp21
 70
     1
102
RTVSPropertyOp22
 70
     1
102
RTVSPropertyOp23
 70
     1
102
RTVSPropertyOp24
 70
     1
102
RTVSPropertyOp25
 70
     1
102
RTVSPropertyOp26
 70
     1
102
RTVSPropertyOp27
 70
     1
102
RTVSPropertyOp28
 70
     1
102
RTVSPropertyOp29
 70
     1
102
RTVSPropertyOp30
 70
     1
102
RTVSPropertyOp31
 70
     1
102
RTVSPropertyOp32
 70
     1
  0
XRECORD
  5
3C4
102
{ACAD_REACTORS
330
3C3
102
}
330
3C3
100
AcDbXrecord
280
     1
102
RTVSPropertyOp0
 70
     1
102
RTVSPropertyOp1
 70
     1
102
RTVSPropertyOp2
 70
     1
102
RTVSPropertyOp3
 70
     1
102
RTVSPropertyOp4
 70
     1
102
RTVSPropertyOp5
 70
     1
102
RTVSPropertyOp6
 70
     1
102
RTVSPropertyOp7
 70
     1
102
RTVSPropertyOp8
 70
     1
102
RTVSPropertyOp9
 70
     1
102
RTVSPropertyOp10
 70
     1
102
RTVSPropertyOp11
 70
     1
102
RTVSPropertyOp12
 70
     1
102
RTVSPropertyOp13
 70
     1
102
RTVSPropertyOp14
 70
     1
102
RTVSPropertyOp15
 70
     1
102
RTVSPropertyOp16
 70
     1
102
RTVSPropertyOp17
 70
     1
102
RTVSPropertyOp18
 70
     1
102
RTVSPropertyOp19
 70
     1
102
RTVSPropertyOp20
 70
     1
102
RTVSPropertyOp21
 70
     1
102
RTVSPropertyOp22
 70
     1
102
RTVSPropertyOp23
 70
     1
102
RTVSPropertyOp24
 70
     1
102
RTVSPropertyOp25
 70
     1
102
RTVSPropertyOp26
 70
     1
102
RTVSPropertyOp27
 70
     1
102
RTVSPropertyOp28
 70
     1
102
RTVSPropertyOp29
 70
     1
102
RTVSPropertyOp30
 70
     1
102
RTVSPropertyOp31
 70
     1
102
RTVSPropertyOp32
 70
     1
  0
XRECORD
  5
3D8
102
{ACAD_REACTORS
330
3D7
102
}
330
3D7
100
AcDbXrecord
280
     1
102
RTVSPropertyOp0
 70
     1
102
RTVSPropertyOp1
 70
     1
102
RTVSPropertyOp2
 70
     1
102
RTVSPropertyOp3
 70
     1
102
RTVSPropertyOp4
 70
     1
102
RTVSPropertyOp5
 70
     1
102
RTVSPropertyOp6
 70
     1
102
RTVSPropertyOp7
 70
     1
102
RTVSPropertyOp8
 70
     1
102
RTVSPropertyOp9
 70
     1
102
RTVSPropertyOp10
 70
     1
102
RTVSPropertyOp11
 70
     1
102
RTVSPropertyOp12
 70
     1
102
RTVSPropertyOp13
 70
     1
102
RTVSPropertyOp14
 70
     1
102
RTVSPropertyOp15
 70
     1
102
RTVSPropertyOp16
 70
     1
102
RTVSPropertyOp17
 70
     1
102
RTVSPropertyOp18
 70
     1
102
RTVSPropertyOp19
 70
     1
102
RTVSPropertyOp20
 70
     1
102
RTVSPropertyOp21
 70
     1
102
RTVSPropertyOp22
 70
     1
102
RTVSPropertyOp23
 70
     1
102
RTVSPropertyOp24
 70
     1
102
RTVSPropertyOp25
 70
     1
102
RTVSPropertyOp26
 70
     1
102
RTVSPropertyOp27
 70
     1
102
RTVSPropertyOp28
 70
     1
102
RTVSPropertyOp29
 70
     1
102
RTVSPropertyOp30
 70
     1
102
RTVSPropertyOp31
 70
     1
102
RTVSPropertyOp32
 70
     1
  0
XRECORD
  5
3CE
102
{ACAD_REACTORS
330
3CD
102
}
330
3CD
100
AcDbXrecord
280
     1
102
RTVSPropertyOp0
 70
     1
102
RTVSPropertyOp1
 70
     1
102
RTVSPropertyOp2
 70
     1
102
RTVSPropertyOp3
 70
     1
102
RTVSPropertyOp4
 70
     1
102
RTVSPropertyOp5
 70
     1
102
RTVSPropertyOp6
 70
     1
102
RTVSPropertyOp7
 70
     1
102
RTVSPropertyOp8
 70
     1
102
RTVSPropertyOp9
 70
     1
102
RTVSPropertyOp10
 70
     1
102
RTVSPropertyOp11
 70
     1
102
RTVSPropertyOp12
 70
     1
102
RTVSPropertyOp13
 70
     1
102
RTVSPropertyOp14
 70
     1
102
RTVSPropertyOp15
 70
     1
102
RTVSPropertyOp16
 70
     1
102
RTVSPropertyOp17
 70
     1
102
RTVSPropertyOp18
 70
     1
102
RTVSPropertyOp19
 70
     1
102
RTVSPropertyOp20
 70
     1
102
RTVSPropertyOp21
 70
     1
102
RTVSPropertyOp22
 70
     1
102
RTVSPropertyOp23
 70
     1
102
RTVSPropertyOp24
 70
     1
102
RTVSPropertyOp25
 70
     1
102
RTVSPropertyOp26
 70
     1
102
RTVSPropertyOp27
 70
     1
102
RTVSPropertyOp28
 70
     1
102
RTVSPropertyOp29
 70
     1
102
RTVSPropertyOp30
 70
     1
102
RTVSPropertyOp31
 70
     1
102
RTVSPropertyOp32
 70
     1
  0
XRECORD
  5
3D6
102
{ACAD_REACTORS
330
3D5
102
}
330
3D5
100
AcDbXrecord
280
     1
102
RTVSPropertyOp0
 70
     1
102
RTVSPropertyOp1
 70
     1
102
RTVSPropertyOp2
 70
     1
102
RTVSPropertyOp3
 70
     1
102
RTVSPropertyOp4
 70
     1
102
RTVSPropertyOp5
 70
     1
102
RTVSPropertyOp6
 70
     1
102
RTVSPropertyOp7
 70
     1
102
RTVSPropertyOp8
 70
     1
102
RTVSPropertyOp9
 70
     1
102
RTVSPropertyOp10
 70
     1
102
RTVSPropertyOp11
 70
     1
102
RTVSPropertyOp12
 70
     1
102
RTVSPropertyOp13
 70
     1
102
RTVSPropertyOp14
 70
     1
102
RTVSPropertyOp15
 70
     1
102
RTVSPropertyOp16
 70
     1
102
RTVSPropertyOp17
 70
     1
102
RTVSPropertyOp18
 70
     1
102
RTVSPropertyOp19
 70
     1
102
RTVSPropertyOp20
 70
     1
102
RTVSPropertyOp21
 70
     1
102
RTVSPropertyOp22
 70
     1
102
RTVSPropertyOp23
 70
     1
102
RTVSPropertyOp24
 70
     1
102
RTVSPropertyOp25
 70
     1
102
RTVSPropertyOp26
 70
     1
102
RTVSPropertyOp27
 70
     1
102
RTVSPropertyOp28
 70
     1
102
RTVSPropertyOp29
 70
     1
102
RTVSPropertyOp30
 70
     1
102
RTVSPropertyOp31
 70
     1
102
RTVSPropertyOp32
 70
     1
  0
ENDSEC
  0
EOF
